<?xml version="1.0" standalone="no"?>
<!DOCTYPE svg PUBLIC "-//W3C//DTD SVG 1.1//EN" "http://www.w3.org/Graphics/SVG/1.1/DTD/svg11.dtd" >
<svg xmlns="http://www.w3.org/2000/svg">
<metadata>Generated by IcoMoon</metadata>
<defs>
<font id="icomoon" horiz-adv-x="1024">
<font-face units-per-em="1024" ascent="960" descent="-64" />
<missing-glyph horiz-adv-x="1024" />
<glyph unicode="&#x20;" horiz-adv-x="512" d="" />
<glyph unicode="&#xe900;" glyph-name="speaker" d="M861.36 438.686l-60.304 391.974c-6.098 39.632-14.394 63.366-27.746 79.356-14.54 17.41-32.894 23.428-53.64 28.986-51.45 13.786-143.418 20.998-207.67 20.998s-156.22-7.212-207.668-20.998c-20.746-5.558-39.102-11.576-53.64-28.986-13.352-15.99-21.648-39.722-27.746-79.356l-60.306-391.974c-32.754-212.898-31.774-288.216 37.5-412.454 19.816-35.538 33.398-58.138 54.902-72.314 22.732-14.986 50.932-17.918 91.958-17.918h330c41.028 0 69.226 2.932 91.958 17.918 21.504 14.176 35.086 36.778 54.902 72.314 69.274 124.236 70.254 199.556 37.5 412.454zM677-24h-330c-59.142 0-73.306 5.214-94.832 39.972h519.666c-21.526-34.758-35.692-39.972-94.834-39.972zM794.552 55.972h-565.104c-55.592 103.064-59.472 167.336-27.272 376.63l3.598 23.384h216.22c11.044 0 20 8.956 20 20s-8.956 20-20 20h-210.068l50.554 328.592c9.916 64.458 21.43 67.542 52.204 75.788 48.11 12.89 135.678 19.634 197.316 19.634s149.208-6.744 197.318-19.634c30.774-8.246 42.288-11.33 52.204-75.788l50.552-328.59h-210.080c-11.044 0-20-8.956-20-20s8.956-20 20-20h216.234l3.598-23.384c32.198-209.296 28.318-273.568-27.274-376.632zM512 667.996c44.112 0 80 35.888 80 80s-35.888 80-80 80-80-35.888-80-80 35.888-80 80-80zM512 787.996c22.056 0 40-17.944 40-40s-17.944-40-40-40-40 17.944-40 40 17.942 40 40 40zM552 627.992h-80c-11.044 0-20-8.956-20-20s8.956-20 20-20h80c11.044 0 20 8.956 20 20s-8.954 20-20 20zM272.008 395.984h-0.016c-11.044 0-19.992-8.956-19.992-20s8.962-20 20.008-20 20 8.956 20 20-8.954 20-20 20zM392.006 395.984h-0.014c-11.044 0-19.994-8.956-19.994-20s8.962-20 20.008-20 20 8.956 20 20-8.954 20-20 20zM512.006 395.984h-0.014c-11.044 0-19.994-8.956-19.994-20s8.962-20 20.008-20 20 8.956 20 20-8.954 20-20 20zM632.006 395.984h-0.016c-11.044 0-19.992-8.956-19.992-20s8.962-20 20.008-20 20 8.956 20 20-8.954 20-20 20zM752.006 395.984h-0.016c-11.044 0-19.992-8.956-19.992-20s8.962-20 20.008-20 20 8.956 20 20-8.954 20-20 20zM332.004 315.98h-0.014c-11.044 0-19.994-8.956-19.994-20s8.962-20 20.008-20 20 8.956 20 20-8.954 20-20 20zM452.004 315.98h-0.014c-11.044 0-19.994-8.956-19.994-20s8.962-20 20.008-20 20 8.956 20 20-8.954 20-20 20zM572.004 315.98h-0.016c-11.044 0-19.992-8.956-19.992-20s8.962-20 20.008-20 20 8.956 20 20-8.954 20-20 20zM692.004 315.98h-0.016c-11.044 0-19.992-8.956-19.992-20s8.962-20 20.008-20 20 8.956 20 20-8.954 20-20 20zM272.008 235.978h-0.016c-11.044 0-19.992-8.956-19.992-20s8.962-20 20.008-20 20 8.956 20 20-8.954 20-20 20zM392.006 235.978h-0.014c-11.044 0-19.994-8.956-19.994-20s8.962-20 20.008-20 20 8.956 20 20-8.954 20-20 20zM512.006 235.978h-0.014c-11.044 0-19.994-8.956-19.994-20s8.962-20 20.008-20 20 8.956 20 20-8.954 20-20 20zM632.006 235.978h-0.016c-11.044 0-19.992-8.956-19.992-20s8.962-20 20.008-20 20 8.956 20 20-8.954 20-20 20zM752.006 235.978h-0.016c-11.044 0-19.992-8.956-19.992-20s8.962-20 20.008-20 20 8.956 20 20-8.954 20-20 20zM332.004 155.976h-0.014c-11.044 0-19.994-8.956-19.994-20s8.962-20 20.008-20 20 8.956 20 20-8.954 20-20 20zM452.004 155.976h-0.014c-11.044 0-19.994-8.956-19.994-20s8.962-20 20.008-20 20 8.956 20 20-8.954 20-20 20zM572.004 155.976h-0.016c-11.044 0-19.992-8.956-19.992-20s8.962-20 20.008-20 20 8.956 20 20-8.954 20-20 20zM692.004 155.976h-0.016c-11.044 0-19.992-8.956-19.992-20s8.962-20 20.008-20 20 8.956 20 20-8.954 20-20 20zM512 455.988c11.044 0 20 8.956 20 20s-8.956 20-20 20h-0.014c-11.044 0-19.992-8.956-19.992-20s8.96-20 20.006-20z" />
<glyph unicode="&#xe901;" glyph-name="security-camera" d="M546.134 558.934c70.692 0 128 57.308 128 128s-57.308 128-128 128c-70.692 0-128-57.308-128-128 0.084-70.658 57.342-127.916 128-128zM546.134 780.8c51.842 0 93.866-42.026 93.866-93.866 0-51.842-42.026-93.866-93.866-93.866-51.842 0-93.866 42.026-93.866 93.866 0.056 51.818 42.048 93.81 93.866 93.866zM546.134 635.734c28.276 0 51.2 22.924 51.2 51.2s-22.924 51.2-51.2 51.2-51.2-22.922-51.2-51.2 22.922-51.2 51.2-51.2zM546.134 704c9.426 0 17.066-7.64 17.066-17.066s-7.64-17.066-17.066-17.066-17.066 7.64-17.066 17.066 7.64 17.066 17.066 17.066zM699.734 106.666h-68.266v145.426c-0.028 23.354-18.954 42.28-42.308 42.308h-142.012l-175.24 70.998-2.44 0.768c-7.668 1.586-13.24 8.234-13.466 16.060v185.242h51.2v-107.178c0.028-25.626 20.796-46.394 46.422-46.422h385.024c25.626 0.028 46.394 20.796 46.422 46.422v453.288c-0.032 25.626-20.798 46.394-46.424 46.422h-385.024c-25.626-0.028-46.394-20.796-46.422-46.422v-141.312h-51.2v170.668c0 9.426-7.64 17.066-17.066 17.066s-17.066-7.64-17.066-17.066v-560.708c0.168-23.104 15.892-43.188 38.28-48.896l166.52-67.482v-159.18h-102.4c-75.37-0.084-136.448-61.164-136.534-136.534 0-9.052 3.596-17.734 9.998-24.136s15.082-9.998 24.134-9.998h580.266c18.852 0 34.134 15.282 34.134 34.134-0.084 75.37-61.162 136.448-136.532 136.532zM341.334 913.578c0.010 6.782 5.506 12.278 12.288 12.288h329.046v-34.134c0-9.426 7.642-17.066 17.066-17.066 9.426 0 17.066 7.64 17.066 17.066v34.134h21.846c6.782-0.010 12.278-5.506 12.288-12.288v-453.29c-0.010-6.782-5.506-12.278-12.288-12.288h-329.046v34.134c0 9.426-7.64 17.066-17.066 17.066s-17.066-7.64-17.066-17.066v-34.134h-21.846c-6.782 0.010-12.278 5.506-12.288 12.288v453.29zM256 738.134h51.2v-136.534h-51.2v136.534zM460.8 260.266h128.358c4.51-0.010 8.166-3.664 8.174-8.174v-145.426h-136.532v153.6zM221.866-29.866c0.056 56.53 45.87 102.344 102.4 102.4h375.466c56.53-0.056 102.344-45.87 102.4-102.4h-580.266zM699.734 789.334c9.426 0 17.066 7.64 17.066 17.066v17.066c0 9.426-7.642 17.066-17.066 17.066-9.426 0-17.066-7.64-17.066-17.066v-17.066c-0.002-9.426 7.64-17.066 17.066-17.066zM392.534 533.334c9.426 0 17.066 7.642 17.066 17.066v17.066c0 9.426-7.64 17.066-17.066 17.066s-17.066-7.64-17.066-17.066v-17.066c-0.002-9.426 7.64-17.066 17.066-17.066z" />
<glyph unicode="&#xe902;" glyph-name="lights" d="M310 770c0 22.094 17.906 40 40 40s40-17.906 40-40-17.906-40-40-40-40 17.906-40 40zM468 770c0 22.094 17.906 40 40 40s40-17.906 40-40-17.906-40-40-40-40 17.906-40 40zM630 770c0 22.094 17.906 40 40 40s40-17.906 40-40-17.906-40-40-40-40 17.906-40 40zM630 452c0 22.094 17.906 40 40 40s40-17.906 40-40-17.906-40-40-40-40 17.906-40 40zM468 452c0 22.094 17.906 40 40 40s40-17.906 40-40-17.906-40-40-40-40 17.906-40 40zM310 452c0 22.094 17.906 40 40 40s40-17.906 40-40-17.906-40-40-40-40 17.906-40 40zM984 416c22.094 0 40 17.906 40 40v154c0 22.094-17.906 40-40 40h-120v190c0 66.172-53.828 120-120 120h-464c-66.172 0-120-53.828-120-120v-190h-120c-22.094 0-40-17.906-40-40v-354c0-88.227 71.773-160 160-160h312v-120c0-22.094 17.906-40 40-40s40 17.906 40 40v120h312c88.227 0 160 71.773 160 160 0 22.094-17.906 40-40 40s-40-17.906-40-40c0-44.109-35.891-80-80-80h-704c-44.109 0-80 35.891-80 80v314h80v-194c0-66.172 53.828-120 120-120h464c66.172 0 120 53.828 120 120v194h80v-114c0-22.094 17.906-40 40-40zM784 376c0-22.055-17.945-40-40-40h-464c-22.055 0-40 17.945-40 40v464c0 22.055 17.945 40 40 40h464c22.055 0 40-17.945 40-40zM390 630v-40c0-22.094-17.906-40-40-40s-40 17.906-40 40v40c0 22.094 17.906 40 40 40s40-17.906 40-40zM550 630v-40c0-22.094-17.906-40-40-40s-40 17.906-40 40v40c0 22.094 17.906 40 40 40s40-17.906 40-40zM710 630v-40c0-22.094-17.906-40-40-40s-40 17.906-40 40v40c0 22.094 17.906 40 40 40s40-17.906 40-40z" />
<glyph unicode="&#xe903;" glyph-name="heating" d="M611.977-24c0-22.094-17.906-40-39.992-40h-311.992c-88.219 0-159.992 71.773-159.992 159.992v387.359l-31.75-31.68c-7.805-7.789-18.031-11.687-28.25-11.687-10.25 0-20.5 3.914-28.312 11.742-15.609 15.633-15.578 40.961 0.055 56.57l420.562 419.734c0.539 0.531 1.094 1.055 1.664 1.562 45.68 40.672 114.445 40.523 159.953-0.336 0.617-0.555 1.211-1.125 1.789-1.711l229.773-233.516c15.492-15.75 15.289-41.070-0.461-56.57-15.742-15.492-41.070-15.289-56.562 0.461l-228.758 232.484c-14.922 12.742-36.867 12.766-51.828 0.055l-307.937-307.328c0.008-0.391 0.055-0.766 0.055-1.156v-465.984c0-44.109 35.891-79.992 80-79.992h311.992c22.086 0 39.992-17.906 39.992-40zM1023.969 259.992c0-22.094-17.914-40-40-40h-47.453c29.992-31.508 47.453-73.648 47.453-116.219 0-92.516-75.266-167.773-167.773-167.773-92.5 0-167.766 75.258-167.766 167.773 0 42.797 17.492 85.102 47.547 116.562v221.789c0 66.086 53.93 119.852 120.219 119.852 66.094 0 119.859-53.766 119.859-119.852v-2.141h47.914c22.094 0 40-17.906 40-40s-17.906-40-40-40h-47.914v-60h47.914c22.086 0 40-17.906 40-39.992zM903.969 103.766c0 25.648-12.477 51.273-33.383 68.539-9.203 7.602-14.531 18.906-14.531 30.844v238.977c0 21.977-17.875 39.859-39.859 39.859-22.18 0-40.219-17.883-40.219-39.859v-239.094c0-11.914-5.312-23.211-14.484-30.805-20.703-17.148-33.062-42.734-33.062-68.453 0-48.398 39.375-87.773 87.766-87.773 48.398 0 87.773 39.367 87.773 87.766zM815.977 143.992c-22.094 0-40-17.906-40-40 0-22.086 17.906-40 40-40 22.086 0 39.992 17.914 39.992 40 0 22.094-17.906 40-39.992 40z" />
<glyph unicode="&#xe904;" glyph-name="sun-energy" d="M510.983 819.26c-22.048 0-39.92 17.872-39.92 39.92v59.88c0 22.048 17.872 39.92 39.92 39.92s39.92-17.872 39.92-39.92v-59.88c0-22.046-17.872-39.92-39.92-39.92zM139.722 448.001c0 22.048-17.872 39.92-39.92 39.92h-59.882c-22.048 0-39.92-17.872-39.92-39.92s17.872-39.92 39.92-39.92h59.88c22.050-0.002 39.922 17.87 39.922 39.92zM326.329 773.294c18.772 11.564 24.618 36.154 13.054 54.926l-29.968 48.652c-11.564 18.772-36.156 24.616-54.926 13.054-18.772-11.564-24.618-36.154-13.054-54.926l29.968-48.652c7.544-12.246 20.628-18.99 34.028-18.99 7.14 0 14.372 1.918 20.898 5.936zM192.318 645.707c10.968 19.126 4.356 43.522-14.77 54.49l-48.73 27.944c-19.124 10.966-43.522 4.356-54.49-14.77s-4.356-43.522 14.77-54.49l48.73-27.944c6.262-3.59 13.088-5.298 19.822-5.298 13.838 0.002 27.29 7.206 34.668 20.068zM122.344 177.498l50.65 27.97c19.3 10.658 26.306 34.944 15.646 54.244-10.658 19.298-34.94 26.304-54.244 15.646l-50.65-27.97c-19.3-10.658-26.306-34.944-15.646-54.244 7.28-13.182 20.916-20.628 34.982-20.628 6.526 0 13.144 1.604 19.262 4.982zM298.727 26.602l29.168 49.974c11.112 19.042 4.686 43.488-14.356 54.602-19.040 11.108-43.486 4.686-54.602-14.356l-29.168-49.974c-11.112-19.042-4.686-43.488 14.356-54.602 6.328-3.692 13.252-5.45 20.086-5.45 13.73 0.002 27.094 7.092 34.516 19.806zM581.463-62.982c19.894 0.078 39.124 7.966 52.76 21.642 1.206 1.21 2.334 2.496 3.376 3.85l218.2 283.739c13.44 17.478 10.168 42.542-7.31 55.98-17.478 13.442-42.542 10.17-55.98-7.31l-162.316-211.068 86.976 242.25c4.392 12.23 2.554 25.83-4.922 36.46-7.478 10.628-19.656 16.952-32.652 16.952h-95.808c-20.516 0-30.842 13.67-34.332 19.548-3.462 5.832-10.43 21.254-0.932 39.088l220.932 379.115h143.908l-159.15-264.871c-7.41-12.332-7.61-27.696-0.526-40.218s20.36-20.262 34.744-20.262h142.32c7.832 0 11.058-4.478 12.284-7.146 1.436-3.124 2.172-7.978-2.462-13.372-0.1-0.116-0.198-0.232-0.296-0.348l-16.39-19.53c-14.174-16.886-11.972-42.068 4.916-56.242s42.068-11.972 56.242 4.916l16.26 19.374c23.892 27.958 29.368 65.686 14.284 98.526-15.204 33.1-47.712 53.662-84.838 53.662h-71.764l159.15 264.869c7.41 12.332 7.61 27.696 0.526 40.218s-20.36 20.262-34.744 20.262h-237.404c-14.206 0-27.34-7.548-34.492-19.82l-232.804-399.491c-0.188-0.322-0.37-0.644-0.546-0.972-20.46-37.48-19.664-81.78 2.126-118.5 21.79-36.722 60.294-58.646 102.994-58.646h39.058l-100.858-280.915c-7.802-18.548-6.466-38.090 3.758-53.896 11.286-17.452 31.978-27.844 55.4-27.844 0.104 0 0.208 0 0.312 0zM508.513 173.632c3.382 21.786-11.538 42.19-33.324 45.574-2.284 0.356-4.554 0.74-6.816 1.162-109.472 20.34-188.93 116.076-188.93 227.634 0 114.85 85.612 213.426 199.148 229.296 2.804 0.394 5.666 0.738 8.51 1.030 21.934 2.244 37.894 21.84 35.654 43.774-2.244 21.932-21.844 37.898-43.774 35.652-3.822-0.39-7.674-0.856-11.446-1.384-73.71-10.304-141.45-46.938-190.744-103.156-49.778-56.764-77.188-129.642-77.188-205.212 0-150.018 106.902-278.765 254.184-306.131 3.010-0.558 6.092-1.084 9.154-1.56 2.076-0.324 4.136-0.48 6.174-0.48 19.344 0.002 36.338 14.092 39.398 33.802z" />
<glyph unicode="&#xe905;" glyph-name="quote" d="M585.142 886.858v-438.858h292.571c0-161.321-131.251-292.571-292.571-292.571v-146.287c242.001 0 438.858 196.857 438.858 438.858v438.858zM0 448h292.571c0-161.321-131.251-292.571-292.571-292.571v-146.287c242.001 0 438.858 196.857 438.858 438.858v438.858h-438.858z" />
<glyph unicode="&#xe906;" d="M512 943.484c-110.873 0-205.642-68.36-244.868-165.161h-101.971v-165.161h693.677v165.161h-101.971c-39.226 96.801-133.995 165.161-244.868 165.161z" />
<glyph unicode="&#xe907;" d="M396.387 216.774h231.226v-264.258h-231.226v264.258z" />
<glyph unicode="&#xe908;" d="M875.355 563.613v33.032h33.032v33.032h-33.032v132.129h33.032v33.032h-140.618c-45.469 100.699-144.665 165.161-255.769 165.161s-210.3-64.462-255.769-165.161h-140.618v-33.032h33.032v-132.129h-33.032v-33.032h33.032v-33.032h-148.645v-627.613h1024v627.613h-148.645zM181.677 761.806h96.586l4.179 10.323c38.103 94.059 128.215 154.839 229.558 154.839s191.455-60.779 229.558-154.839l4.179-10.323h96.586v-132.129h-660.645v132.129zM33.032-30.968v561.548h115.613v-33.032h-82.581v-33.032h82.581v-495.484h-115.613zM495.484 200.258v-231.226h-82.581v231.226h82.581zM611.097 200.258v-231.226h-82.581v231.226h82.581zM644.129-30.968v231.226h33.032v33.032h-330.323v-33.032h33.032v-231.226h-198.194v627.613h660.645v-627.613h-198.194zM990.968-30.968h-115.613v495.484h82.581v33.032h-82.581v33.032h115.613v-561.548z" />
<glyph unicode="&#xe909;" d="M247.742 431.484h132.129v132.129h-132.129v-132.129zM280.774 530.581h66.065v-66.065h-66.065v66.065z" />
<glyph unicode="&#xe90a;" d="M445.935 431.484h132.129v132.129h-132.129v-132.129zM478.968 530.581h66.065v-66.065h-66.065v66.065z" />
<glyph unicode="&#xe90b;" d="M644.129 431.484h132.129v132.129h-132.129v-132.129zM677.161 530.581h66.065v-66.065h-66.065v66.065z" />
<glyph unicode="&#xe90c;" d="M247.742 266.323h132.129v132.129h-132.129v-132.129zM280.774 365.419h66.065v-66.065h-66.065v66.065z" />
<glyph unicode="&#xe90d;" d="M445.935 266.323h132.129v132.129h-132.129v-132.129zM478.968 365.419h66.065v-66.065h-66.065v66.065z" />
<glyph unicode="&#xe90e;" d="M644.129 266.323h132.129v132.129h-132.129v-132.129zM677.161 365.419h66.065v-66.065h-66.065v66.065z" />
<glyph unicode="&#xe90f;" d="M776.258 695.742h33.032v-33.032h-33.032v33.032z" />
<glyph unicode="&#xe910;" d="M280.774 695.742h462.452v-33.032h-462.452v33.032z" />
<glyph unicode="&#xe911;" d="M214.71 695.742h33.032v-33.032h-33.032v33.032z" />
<glyph unicode="&#xe912;" d="M273.472 736h477.056l-238.528 146.784z" />
<glyph unicode="&#xe913;" d="M624-32h-224v208h224z" />
<glyph unicode="&#xe914;" d="M912 464h-96v96h96z" />
<glyph unicode="&#xe915;" d="M912 336h-96v96h96z" />
<glyph unicode="&#xe916;" d="M208 464h-96v96h96z" />
<glyph unicode="&#xe917;" d="M208 336h-96v96h96z" />
<glyph unicode="&#xe918;" d="M1008 592v85.328l-152 202.672h-224.368l-81.504 52.736c-22.752 14.736-53.552 14.736-76.272 0l-81.488-52.736h-224.368l-152-202.672v-85.328h32v-512h-32v-128h992v128h-32v512zM784 624v32h192v-32zM752-16h-32v256h32zM496 176v-192h-160v256h352v-256h-160v192zM48 624v32h192v-32zM582.176 432h73.824v-47.76zM528 464v64h119.6c5.344-15.040 8.4-31.152 8.4-48v-16zM528 560v63.056c43.152-4.8 80.592-28.688 103.648-63.056zM496 560h-103.648c23.056 34.368 60.512 58.256 103.648 63.056zM368 480c0 16.848 3.056 32.96 8.4 48h119.6v-64h-128zM368 432h73.824l-73.824-47.776zM491.264 425.872c12.336 8.016 29.104 8.016 41.488 0l235.248-152.224v-1.648h-43.472l-212.528 130.784-212.528-130.784h-43.472v1.648zM663.472 272h-302.944l151.472 93.216zM272 240h32v-256h-32zM688 363.536v116.464c0 97.040-78.96 176-176 176s-176-78.96-176-176v-116.48l-64-41.408v397.888h480v-397.888zM840 848l120-160h-176v32h32v40.704l-134.912 87.296zM491.264 905.872c12.336 8.016 29.104 8.016 41.488 0l237.792-153.872h-517.088zM184 848h158.912l-134.912-87.296v-40.704h32v-32h-176zM240 592v-288h-160v288zM80 272h128v-32h32v-160h-160zM48 48h192v-64h-192zM976-16h-192v64h192zM784 80v160h32v32h128v-192zM944 304h-160v288h160z" />
<glyph unicode="&#xe919;" d="M772.245 335.509c-7.35-1.833-12.503-8.44-12.503-16.021v-53.165c0-9.117 7.399-16.516 16.516-16.516h115.613v115.613l-119.626-29.911z" />
<glyph unicode="&#xe91a;" d="M251.755 335.509c7.35-1.833 12.503-8.44 12.503-16.021v-53.165c0-9.117-7.399-16.516-16.516-16.516h-115.613v115.613l119.626-29.911z" />
<glyph unicode="&#xe91b;" d="M751.071 666.492c-1.949 16.681-16.037 29.25-32.818 29.25h-412.507c-16.813 0-30.902-12.585-32.801-29.25l-25.088-216.593h528.285l-25.071 216.593z" />
<glyph unicode="&#xe91c;" d="M627.613 398.452h-231.226c-45.535 0-82.581-37.046-82.581-82.581v-148.645h396.387v148.645c0 45.535-37.046 82.581-82.581 82.581zM594.581 200.258h-33.032v99.097h33.032v-99.097zM528.516 200.258h-33.032v99.097h33.032v-99.097zM462.452 200.258h-33.032v99.097h33.032v-99.097zM677.161 200.258h-49.548v99.097c0 18.217-14.815 33.032-33.032 33.032h-165.161c-18.217 0-33.032-14.815-33.032-33.032v-99.097h-49.548v115.613c0 27.318 22.231 49.548 49.548 49.548h231.226c27.318 0 49.548-22.231 49.548-49.548v-115.613z" />
<glyph unicode="&#xe91d;" d="M941.419 860.903h-33.032v16.516c0 45.535-37.046 82.581-82.581 82.581h-627.613c-45.535 0-82.581-37.046-82.581-82.581v-16.516h-33.032v-33.032h33.032v-611.097c0-27.318 22.231-49.548 49.548-49.548v-181.677c0-27.318 22.231-49.548 49.548-49.548h66.065c27.318 0 49.548 22.231 49.548 49.548v82.581h363.355v-82.581c0-27.318 22.231-49.548 49.548-49.548h66.065c27.318 0 49.548 22.231 49.548 49.548v181.677c27.318 0 49.548 22.231 49.548 49.548v611.097h33.032v33.032zM297.29-14.452c0-9.1-7.399-16.516-16.516-16.516h-66.065c-9.117 0-16.516 7.416-16.516 16.516v168.415l57.228-85.834h41.868v-82.581zM809.29-30.968h-66.065c-9.117 0-16.516 7.416-16.516 16.516v82.581h41.868l57.228 85.834v-168.415c0-9.1-7.399-16.516-16.516-16.516zM858.839 200.258h-115.613v-33.032h51.729l-44.049-66.065h-477.812l-44.049 66.065h51.729v33.032h-115.613c-9.117 0-16.516 7.416-16.516 16.516v127.488l99.097-24.774v-53.165h-66.065v-33.032h66.065c18.217 0 33.032 14.815 33.032 33.032v53.165c0 15.178-10.29 28.358-25.038 32.041l-101.838 25.468c11.561 31.678 41.703 54.487 77.329 54.487h561.548c35.625 0 65.767-22.809 77.329-54.487l-101.838-25.468c-14.749-3.667-25.038-16.846-25.038-32.041v-53.165c0-18.217 14.815-33.032 33.032-33.032h66.065v33.032h-66.065v53.165l99.097 24.774v-127.488c0-9.1-7.399-16.516-16.516-16.516zM733.646 728.774c25.27 0 46.443-18.944 49.235-44.065l24.576-221.234c-4.823 0.611-9.695 1.041-14.683 1.041h-315.475c-7.68 37.64-41.026 66.065-80.913 66.065s-73.233-28.424-80.913-66.065h-84.249c-4.988 0-9.86-0.429-14.683-1.041l24.576 221.217c2.791 25.138 23.965 44.082 49.235 44.082h443.293zM442.897 464.516h-93.002c6.838 19.175 25.005 33.032 46.509 33.032s39.655-13.857 46.493-33.032zM875.355 429.651c-9.612 9.827-20.959 17.854-33.528 23.783l-26.095 234.909c-4.674 41.885-39.953 73.464-82.085 73.464h-39.969v49.548h-33.032v-49.548h-297.29v49.548h-33.032v-49.548h-39.969c-42.133 0-77.428-31.579-82.085-73.464l-26.095-234.909c-12.569-5.929-23.932-13.956-33.528-23.783v398.22h82.581v33.032h-82.581v16.516c0 27.318 22.231 49.548 49.548 49.548h627.613c27.318 0 49.548-22.231 49.548-49.548v-16.516h-82.581v-33.032h82.581v-398.22z" />
<glyph unicode="&#xe91e;" d="M379.871 860.903h264.258v-33.032h-264.258v33.032z" />
<glyph unicode="&#xe91f;" d="M264.258 860.903h49.548v-33.032h-49.548v33.032z" />
<glyph unicode="&#xe920;" d="M710.194 860.903h49.548v-33.032h-49.548v33.032z" />
<glyph unicode="&#xe921;" d="M346.839 794.839c-27.318 0-49.548 22.231-49.548 49.548s22.231 49.548 49.548 49.548 49.548-22.231 49.548-49.548-22.231-49.548-49.548-49.548z" />
<glyph unicode="&#xe922;" d="M677.161 794.839c-27.318 0-49.548 22.231-49.548 49.548s22.231 49.548 49.548 49.548 49.548-22.231 49.548-49.548-22.231-49.548-49.548-49.548z" />
<glyph unicode="&#xe923;" glyph-name="wireless-gadget" d="M810.923-20.693c0.353-23.564-18.463-42.953-42.027-43.307s-42.953 18.463-43.307 42.027c-0.353 23.564 18.463 42.953 42.027 43.307s42.953-18.463 43.307-42.027zM641.749 51.669c-8.021 0-16.085 2.987-22.272 9.045-12.672 12.288-12.971 32.597-0.683 45.269 39.723 40.875 92.8 63.872 149.589 64.725h3.072c55.637 0 108.16-21.291 148.352-60.245 12.672-12.288 13.013-32.555 0.683-45.269-12.288-12.715-32.512-13.013-45.269-0.683-28.629 27.733-68.139 42.667-105.899 42.155-39.68-0.597-76.8-16.683-104.576-45.312-6.315-6.443-14.677-9.685-22.997-9.685zM544 165.547c-8.491 0-16.981 3.371-23.296 10.069-12.117 12.885-11.52 33.109 1.365 45.227 66.517 62.592 153.216 97.792 244.181 99.157 90.496 2.603 178.645-31.531 247.040-92.629 13.227-11.733 14.336-32 2.603-45.184-11.776-13.227-32.043-14.379-45.184-2.603-56.448 50.389-128.683 79.275-203.563 76.373-74.923-1.109-146.432-30.165-201.259-81.749-6.144-5.803-13.995-8.661-21.888-8.661zM394.667 106.667h-298.667c-52.907 0-96 43.093-96 96v362.667c0 52.907 43.093 96 96 96h490.667c52.907 0 96-43.093 96-96v-128c0-17.664-14.336-32-32-32s-32 14.336-32 32v128c0 17.621-14.379 32-32 32h-490.667c-17.621 0-32-14.379-32-32v-362.667c0-17.621 14.379-32 32-32h298.667c17.664 0 32-14.336 32-32s-14.336-32-32-32zM522.667 597.333c-17.664 0-32 14.336-32 32v117.333c0 82.347-66.987 149.333-149.333 149.333s-149.333-66.987-149.333-149.333v-117.333c0-17.664-14.336-32-32-32s-32 14.336-32 32v117.333c0 117.632 95.701 213.333 213.333 213.333s213.333-95.701 213.333-213.333v-117.333c0-17.664-14.336-32-32-32z" />
<glyph unicode="&#xe924;" glyph-name="password" d="M512 544.682c-48.288 0-87.574-39.286-87.574-87.574 0-37.754 24.016-70.002 57.574-82.276v-40.112c0-16.568 13.432-30 30-30s30 13.432 30 30v40.112c33.558 12.274 57.574 44.522 57.574 82.276 0 48.288-39.286 87.574-87.574 87.574zM512 484.682c15.204 0 27.574-12.37 27.574-27.574s-12.37-27.572-27.574-27.572-27.574 12.37-27.574 27.572c0 15.204 12.37 27.574 27.574 27.574zM871.838 240.494h-199.58c107.026 93.092 112.794 256.368 13.104 356.712v189.26c0 95.592-77.77 173.362-173.362 173.362s-173.362-77.77-173.362-173.362v-189.262c-99.57-100.222-94.058-263.502 13.104-356.712h-199.58c-83.904 0.002-152.162-68.256-152.162-152.158s68.258-152.162 152.162-152.162h719.678c83.902 0 152.162 68.26 152.162 152.162s-68.26 152.16-152.164 152.16zM512 899.828c62.508 0 113.362-50.854 113.362-113.362v-144.918c-70.84 37.232-155.808 37.272-226.724 0v144.918c0 62.508 50.854 113.362 113.362 113.362zM327.51 424.984c0 101.726 82.762 184.488 184.49 184.488s184.49-82.762 184.49-184.488c0-101.728-82.762-184.49-184.49-184.49s-184.49 82.762-184.49 184.49zM871.838-3.828h-719.676c-50.818 0-92.162 41.344-92.162 92.162 0 50.816 41.344 92.16 92.162 92.16h719.678c50.818 0 92.162-41.344 92.162-92.16-0.002-50.818-41.346-92.162-92.164-92.162zM226.77 88.26c0-17.699-14.347-32.046-32.046-32.046s-32.046 14.347-32.046 32.046c0 17.699 14.347 32.046 32.046 32.046s32.046-14.347 32.046-32.046zM385.408 88.26c0-17.699-14.347-32.046-32.046-32.046s-32.046 14.347-32.046 32.046c0 17.699 14.347 32.046 32.046 32.046s32.046-14.347 32.046-32.046zM544.046 88.26c0-17.699-14.347-32.046-32.046-32.046s-32.046 14.347-32.046 32.046c0 17.699 14.347 32.046 32.046 32.046s32.046-14.347 32.046-32.046zM702.684 88.26c0-17.699-14.347-32.046-32.046-32.046s-32.046 14.347-32.046 32.046c0 17.699 14.347 32.046 32.046 32.046s32.046-14.347 32.046-32.046zM861.322 88.26c0-17.699-14.347-32.046-32.046-32.046s-32.046 14.347-32.046 32.046c0 17.699 14.347 32.046 32.046 32.046s32.046-14.347 32.046-32.046z" />
<glyph unicode="&#xe925;" glyph-name="credit-card" d="M1024 746.71h-55.988v37.571c0 69.414-56.472 125.888-125.888 125.888s-125.888-56.474-125.888-125.888v-37.571h-55.988v-137.446h-660.249v-623.432h872.154v425.986h151.846zM776.237 784.281c0 36.329 29.557 65.886 65.886 65.886s65.886-29.557 65.886-65.886v-37.571h-131.774v37.571zM660.247 549.262v-77.444h-600.246v77.444zM812.152 411.818v-74.998h-752.15v74.998zM60.002 45.833v230.983h752.15v-230.983zM963.998 471.82h-91.873v137.448h-60.002v-137.448h-91.875v214.888h243.749zM523.319 165.481h81.918v-60.002h-81.918zM669.24 165.481h81.918v-60.002h-81.918z" />
<glyph unicode="&#xe926;" glyph-name="24-hours" d="M689.123 591.852v-302.141h64.171v113.771c0 26.338 11.487 44.736 27.934 44.736 22 0 20.126-27.309 20.126-44.569 0-0.094 0.419-114.056 0.419-114.056l64.169 0.235-0.417 113.643c0.193 41.123-8.231 68.839-26.501 87.204-14.334 14.409-33.78 21.713-57.799 21.713-9.72 0-19.099-1.591-27.934-4.637v84.101zM534.563 600.451l-132.933-231.668h146.958l-0.19-73.149 64.171-0.167 0.19 73.316h32.173v64.171h-32.009l0.432 167.497zM548.753 432.954h-36.317l36.479 63.576zM321.692 606.289c-45.57 0-85.010-32.419-93.782-77.087l-6.184-31.484 62.969-12.366 6.184 31.484c2.877 14.65 15.835 25.281 30.813 25.281 16.751 0 30.479-13.181 31.358-29.716-1.136-16.796-12.426-33.42-21.76-46.753-59.484-84.988-85.525-112.907-85.713-113.108l-8.809-9.243-0.201-53.099 191.121-0.584 0.197 64.171-98.441 0.302c13.887 18.152 31.893 42.578 54.421 74.766 16.766 23.957 32.263 51.961 33.403 81.863-0.002 52.697-42.877 95.572-95.576 95.572zM883.425 787.38c-90.652 90.65-211.181 140.575-339.38 140.575-109.551 0-216.699-37.88-301.705-106.665-83.75-67.769-142.871-162.648-166.468-267.159l62.597-14.133c20.432 90.496 71.658 172.678 144.24 231.407 73.621 59.572 166.434 92.381 261.339 92.381 229.264 0 415.784-186.52 415.784-415.784s-186.52-415.784-415.784-415.784c-202.396 0-371.448 145.375-408.299 337.183l15.932-13.057 40.676 49.632-82.901 67.94h-26.556l-82.898-67.94 40.676-49.632 28.259 23.159c14.518-102.212 61.433-196.584 135.73-270.883 90.652-90.65 211.181-140.575 339.38-140.575s248.727 49.925 339.38 140.575c90.65 90.652 140.575 211.181 140.575 339.38s-49.925 248.727-140.575 339.38z" />
<glyph unicode="&#xe927;" glyph-name="login" d="M715.997 268.001c0-22.091-17.909-40-40-40s-40 17.909-40 40c0 22.091 17.909 40 40 40s40-17.909 40-40zM475.998 16.002h-315.999c-44.112 0-80 35.888-80 80v327.999c0 44.112 35.888 80 80 80h575.998c44.112 0 80-35.888 80-80v-80c0-22.092 17.908-40 40-40s40 17.908 40 40v80c0 88.224-71.776 159.999-159.999 159.999h-48.074v141.067c0 129.541-107.664 234.931-239.999 234.931s-239.999-105.39-239.999-234.931v-141.067h-47.926c-88.224 0-159.999-71.776-159.999-159.999v-327.999c0-88.224 71.776-159.999 159.999-159.999h315.999c22.092 0 40 17.908 40 40s-17.908 40-40 40zM287.925 725.067c0 85.43 71.776 154.931 159.999 154.931s159.999-69.502 159.999-154.931v-141.067h-319.999v141.067zM1007.282 308.525c-17.964 12.862-42.954 8.724-55.808-9.24l-197.161-275.399c-5.384-6.244-12.132-7.592-15.748-7.832-3.708-0.246-10.848 0.224-17.134 6.122l-127.416 124.342c-15.812 15.432-41.136 15.118-56.564-0.69-15.43-15.81-15.122-41.134 0.69-56.564l127.64-124.562c0.12-0.116 0.238-0.232 0.36-0.346 19.134-18.218 44.676-28.352 70.956-28.352 2.258 0 4.522 0.074 6.786 0.226 28.628 1.908 55.358 15.83 73.332 38.194 0.464 0.58 0.912 1.17 1.346 1.774l197.961 276.519c12.858 17.962 8.722 42.95-9.24 55.808zM563.998 268.001c0-22.091-17.909-40-40-40s-40 17.909-40 40c0 22.091 17.909 40 40 40s40-17.909 40-40zM263.999 268.001c0-22.091-17.909-40-40-40s-40 17.909-40 40c0 22.091 17.909 40 40 40s40-17.909 40-40zM413.998 268.001c0-22.091-17.909-40-40-40s-40 17.909-40 40c0 22.091 17.909 40 40 40s40-17.909 40-40z" />
<glyph unicode="&#xe928;" glyph-name="shield" d="M902.406 715.95l-376.563 240.411c-7.612 4.849-17.355 4.849-24.968 0l-376.798-240.411c-6.718-4.172-10.827-11.513-10.863-19.423v-208.508c0.19-171.766 83.472-332.831 223.534-432.277l162.971-115.582c8.082-5.544 18.737-5.544 26.819 0l162.971 115.582c140.053 99.446 223.344 260.511 223.534 432.277v208.508c0.099 7.892-3.937 15.26-10.637 19.423zM867.036 487.793c-0.163-156.821-76.221-303.855-204.111-394.605l-149.571-106.101-149.561 106.101c-127.89 90.75-203.957 237.783-204.12 394.605v195.794l353.681 225.611 353.681-225.611zM390.377 476c-8.867 9.129-23.46 9.337-32.589 0.461-9.129-8.867-9.337-23.46-0.47-32.589l95.933-98.48c8.912-8.967 23.315-9.274 32.598-0.695l183.315 172.913c9.256 8.75 9.671 23.342 0.921 32.598-8.741 9.256-23.333 9.671-32.589 0.921l-166.673-157.426z" />
<glyph unicode="&#xe929;" glyph-name="woman" d="M733.457 209.909h-88.716v29.498h216.675c8.724 0 16.008 6.65 16.798 15.333 0.782 8.683-5.185 16.535-13.761 18.107-92.288 16.881-128.329 112.831-135.086 133.539 6.486 17.259 10.922 35.21 13.226 53.498 27.169 7.243 46.033 31.893 45.918 60.008 0 28.074-17.35 51.827-44.741 59.465v9.811h8.428c9.309 0 16.856 7.547 16.856 16.856v75.852c0 9.309-7.547 16.856-16.856 16.856h-0.593c-7.77 98.84-75.243 182.848-170.074 211.753l-5.942 35.449c-1.366 8.115-8.387 14.066-16.617 14.066h-93.942c-8.239-0.008-15.267-5.967-16.626-14.091l-5.934-35.465c-95.062-28.543-162.7-112.733-170.091-211.712h-4.79c-9.309 0-16.856-7.547-16.856-16.856v-75.852c0-9.309 7.547-16.856 16.856-16.856h12.642v-9.745c-27.391-7.613-46.881-31.794-46.881-59.531 0-28.403 20.782-53.086 48.247-60.066 2.272-18.181 6.65-36.033 13.045-53.202-6.502-20.173-42.313-116.757-135.383-133.778-8.568-1.564-14.535-9.399-13.761-18.082 0.774-8.675 8.033-15.333 16.741-15.358h217.021v-29.498h-88.716c-90.51 0-164.123-74.296-164.123-164.798v-92.272c0-4.469 1.77-8.749 4.93-11.909s7.44-4.93 11.909-4.93h737.481c4.469 0 8.749 1.77 11.909 4.93s4.93 7.44 4.93 11.909v92.272c0 90.502-73.613 164.798-164.123 164.798zM743.77 542.008c6.741-5.358 10.675-13.506 10.675-22.115 0-8.617-3.934-16.757-10.675-22.123zM280.23 497.16c-7.951 4.815-12.815 13.432-12.815 22.733 0 9.292 4.864 17.909 12.815 22.724zM511.819 286.84c-52.749 0-102.165 21.366-139.951 60.165-37.292 38.165-58.099 89.457-57.926 142.823v99.342h396.115v-99.342c0.14-53.374-20.7-104.667-58.016-142.823-37.786-38.798-87.465-60.165-140.222-60.165zM781.613 273.119h-136.872v22.642c11.3 8.494 22 17.753 32.025 27.728 12.395 12.749 23.342 26.831 32.642 41.984 12.733-27.407 35.276-64.848 72.206-92.354zM461.416 880.708c6.502 1.654 11.416 6.988 12.519 13.613l5.358 31.967h65.416l5.358-31.967c1.111-6.601 6.025-11.918 12.519-13.547 7.251-1.835 14.387-4.074 21.383-6.708l-3.737-68.37c-0.938-16.23-14.337-28.93-30.593-29.004h-75.276c-16.255 0.074-29.654 12.774-30.593 29.004l-3.934 68.206c7.062 2.658 14.263 4.93 21.58 6.807zM406.971 858.321l3.144-54.568c1.984-34.058 30.132-60.683 64.247-60.774h75.276c34.132 0.099 62.288 26.749 64.255 60.823l2.971 54.469c57.3-33.893 94.84-93.243 100.905-159.539h-411.539c6.025 66.28 43.498 125.638 100.741 159.588zM284.444 622.881v42.14h450.897v-42.14zM242.066 273.119c37.053 27.58 59.761 65.136 72.51 92.551 9.292-15.226 20.247-29.374 32.658-42.181 10.025-9.975 20.724-19.235 32.033-27.728v-22.642zM493.037-30.288h-332.905v75.399c0 71.918 58.494 131.086 130.412 131.086h100.7l101.794-66.527zM412.971 201.325v74.379c62.584-30.107 135.473-30.107 198.058 0v-73.77l-101.877-63.152zM863.868-30.288h-337.119v139.72l105.235 66.765h101.473c71.918 0 130.412-59.169 130.412-131.086zM452.198 508.65c-9.309 0-16.856-7.547-16.856-16.856 0.074-7.169-3.712-13.835-9.909-17.44-6.206-3.613-13.86-3.613-20.066 0-6.198 3.605-9.984 10.272-9.909 17.44 0 9.309-7.547 16.856-16.856 16.856s-16.856-7.547-16.856-16.856c-0.123-19.251 10.082-37.086 26.733-46.749 16.65-9.654 37.193-9.654 53.844 0 16.658 9.663 26.856 27.498 26.733 46.749 0 9.309-7.547 16.856-16.856 16.856zM636.198 508.65c-9.309 0-16.856-7.547-16.856-16.856 0.074-7.169-3.712-13.835-9.909-17.44-6.206-3.613-13.86-3.613-20.066 0-6.198 3.605-9.984 10.272-9.909 17.44 0 9.309-7.547 16.856-16.856 16.856s-16.856-7.547-16.856-16.856c-0.123-19.251 10.082-37.086 26.733-46.749 16.65-9.654 37.193-9.654 53.844 0 16.658 9.663 26.856 27.498 26.733 46.749 0 9.309-7.547 16.856-16.856 16.856z" />
<glyph unicode="&#xe92a;" glyph-name="value" d="M830.705 699.094c-2.637 4.513-7.854 7.42-12.931 7.42-0.118 0-685.845 0-685.845 0-0.048 0-0.092-0.008-0.14-0.010-5.067-0.052-10.080-2.911-12.695-7.258-0.014-0.024-0.034-0.046-0.048-0.070l-40.329-67.987c-4.221-7.114-1.874-16.302 5.239-20.521 7.12-4.221 16.304-1.874 20.523 5.239l29.723 50.103 138.197-159.792h-231.438l29.375 50.255c4.175 7.142 1.768 16.316-5.373 20.489-7.138 4.175-16.314 1.768-20.489-5.371-0.572-0.98-19.554-33.453-28.472-48.711-3.953-6.764-7.906-13.527-11.859-20.289-3.885-6.645-6.545-13.811-0.904-20.767 0.080-0.098 0.14-0.206 0.222-0.302 0 0 459.428-538.822 459.992-539.482 5.707-6.693 17.020-6.772 22.793 0l198.942 233.322 6.411 7.282c5.467 6.209 4.867 15.673-1.342 21.139-6.207 5.465-15.669 4.863-21.137-1.342l-6.487-7.368c-0.052-0.060-0.106-0.12-0.156-0.182l-151.244-177.379 144.302 458.752h246.855l-188.856-221.491c-5.367-6.295-4.615-15.748 1.678-21.115 6.293-5.365 15.746-4.613 21.115 1.678l209.911 246.185c0.060 0.070 0.104 0.15 0.162 0.222 1.706 2.082 2.795 4.417 3.251 6.836 0.638 3.395 0.028 6.956-1.878 10.218-0.056 0.102-117.068 200.297-117.068 200.297zM164.685 676.559h277.848l-137.493-162.286zM474.852 668.367l137.377-162.146h-274.751zM47.311 476.264h246.855l144.302-458.752zM474.852 1.673l-149.285 474.592h298.57zM644.666 514.273l-137.495 162.286h277.848zM677.305 506.221l138.103 159.686 93.335-159.686zM694.753 831.943c26.58-19.486 42.219-46.726 50.659-66.151 4.379-10.074 14.311-16.586 25.308-16.586s20.931 6.511 25.31 16.586c8.44 19.422 24.077 46.664 50.659 66.151 7.010 5.139 11.192 13.425 11.192 22.163 0 8.74-4.183 17.026-11.192 22.165-26.58 19.486-42.219 46.728-50.661 66.151-4.379 10.074-14.311 16.586-25.308 16.586s-20.931-6.511-25.308-16.586c-8.44-19.42-24.079-46.664-50.661-66.151-7.010-5.139-11.192-13.425-11.192-22.165 0.002-8.738 4.185-17.024 11.194-22.163zM770.722 925.664c10.042-21.683 27.388-49.951 55.596-71.554-28.21-21.605-45.556-49.873-55.596-71.554-10.042 21.683-27.39 49.951-55.596 71.554 28.208 21.605 45.552 49.869 55.596 71.554zM1013.64 751.224c-21.771 15.96-34.608 38.331-41.539 54.286-4.049 9.318-13.237 15.339-23.407 15.339 0 0 0 0-0.002 0-10.168 0-19.356-6.021-23.407-15.339-6.934-15.956-19.766-38.327-41.541-54.288-6.485-4.757-10.356-12.423-10.356-20.507s3.873-15.75 10.36-20.507c21.771-15.96 34.606-38.331 41.539-54.284 4.051-9.32 13.239-15.341 23.409-15.339 10.168 0 19.356 6.021 23.405 15.339 6.936 15.954 19.77 38.325 41.541 54.286 6.485 4.757 10.358 12.423 10.358 20.505 0 8.084-3.873 15.752-10.36 20.509zM948.691 676.595c-8.436 16.974-21.903 37.586-42.483 54.122 20.583 16.536 34.048 37.148 42.483 54.122 8.438-16.976 21.903-37.586 42.485-54.124-20.585-16.536-34.048-37.146-42.485-54.12z" />
<glyph unicode="&#xe92b;" glyph-name="customer-support" d="M1005.92 853.982h-719.409c-4.722 0.141-9.304-1.63-12.714-4.907-3.41-3.286-5.348-7.797-5.392-12.529v-115.639h-250.326c-10.070-0.247-18.106-8.493-18.079-18.573v-642.898c-0.044-6.793 3.753-13.022 9.806-16.097s13.322-2.476 18.784 1.559l165.744 118.899h543.154c4.758-0.062 9.348 1.78 12.749 5.119 3.401 3.33 5.33 7.894 5.357 12.652v115.304h74.070l165.744-118.326c3.084-2.132 6.758-3.233 10.511-3.154 10 0.15 18.035 8.273 18.079 18.273v642.881c-0.035 4.731-1.974 9.242-5.374 12.529-3.401 3.278-7.982 5.048-12.705 4.907zM719.506 199.886h-530.969c-3.789-0.044-7.471-1.278-10.529-3.507l-141.921-101.824v590.264h232.317v-369.031c-0.035-10.15 7.965-18.511 18.106-18.916h432.995zM987.912 228.775l-141.921 101.251c-3.11 2.062-6.802 3.093-10.529 2.934h-530.969v484.934h683.418zM490.599 434.458h40.044c9.507 0.035 17.366 7.401 18.009 16.881l9.145 133.524c0.335 4.916-1.41 9.736-4.819 13.286-3.436 3.586-8.22 5.568-13.189 5.471h-14.256v27.85c0 61.040 49.48 110.52 110.52 110.52s110.52-49.48 110.52-110.52v-27.85h-14.256c-4.969 0.132-9.753-1.841-13.181-5.436-3.427-3.586-5.181-8.458-4.828-13.418l9.154-133.498c0.643-9.463 8.511-16.811 18-16.811h5.11v-12.458c0-11.198-8.018-21.374-19.216-21.374h-80.564c-9.965 0-18.044-8.079-18.044-18.044s8.079-18.044 18.044-18.044h80.564c31.101 0 55.304 26.361 55.304 57.463v12.714c11.427 0.511 22.273 5.216 30.449 13.216 8.634 8.485 13.524 20.053 13.595 32.159 0 0.846 0.115 1.692 0.070 2.546 0 0.123 0.053 0.247 0.044 0.37l-6.247 78.449c-1.445 21.075-17.093 38.441-37.912 42.053v27.965c0 80.969-65.639 146.608-146.608 146.608s-146.608-65.639-146.608-146.608v-27.965c-20.828-3.604-36.502-20.969-37.956-42.062l-6.176-78.449c0-0.123-0.070-0.247-0.079-0.379-0.044-0.846-0.097-1.692-0.097-2.537-0.018-25.137 20.317-45.551 45.463-45.621zM784.828 558.837l6.070-78.37v-0.379c0.009-2.511-0.987-4.934-2.749-6.714-1.753-1.789-4.141-2.802-6.643-2.828h-23.207l-6.67 96.987h23.78c4.925 0.132 9.075-3.665 9.383-8.59 0.018-0.132 0.026 0.018 0.035-0.106zM481.207 480.476l6.070 78.37c0 0.123 0.018-0.026 0.026 0.106 0.308 4.916 4.458 8.714 9.383 8.59h23.78l-6.661-96.996h-23.207c-5.207 0.070-9.392 4.3-9.392 9.507 0 0.123 0 0.291 0 0.423z" />
<glyph unicode="&#xe92c;" glyph-name="efficiency" d="M1024 353.035v189.93l-140.214 28.044c-5.995 18.123-13.33 35.81-21.93 52.885l79.332 118.997-134.301 134.301-118.997-79.332c-17.075 8.6-34.76 15.934-52.885 21.93l-28.042 140.212h-189.93l-28.044-140.214c-18.121-5.995-35.812-13.332-52.885-21.93l-118.997 79.332-134.301-134.301 79.33-118.997c-8.598-17.077-15.932-34.762-21.928-52.885l-140.212-28.042v-189.93l140.214-28.044c5.995-18.123 13.33-35.81 21.928-52.885l-79.33-118.997 134.301-134.301 118.997 79.33c17.075-8.598 34.762-15.932 52.885-21.928l28.042-140.212h189.93l28.044 140.214c18.121 5.995 35.808 13.33 52.885 21.928l118.997-79.33 134.301 134.301-79.332 118.997c8.598 17.073 15.934 34.762 21.93 52.885zM863.678 160.786l-64.464-64.464-108.305 72.202-107.803-44.691-25.522-127.598h-91.168l-25.52 127.598-107.803 44.691-108.307-72.202-64.464 64.464 72.204 108.305-44.693 107.805-127.598 25.52v91.168l127.6 25.52 44.691 107.803-72.204 108.305 64.464 64.464 108.307-72.206 107.803 44.695 25.52 127.6h91.168l25.52-127.598 107.801-44.695 108.307 72.206 64.464-64.464-72.206-108.307 44.695-107.801 127.598-25.52v-91.168l-127.598-25.52-44.695-107.801zM611.617 688.941h-213.275l-85.892-331.294h157.794l-9.347-180.706h97.493l178.907 361.412h-172.413zM640.269 478.118l-115.551-233.424 8.959 173.189h-143.382l54.658 210.824h84.902l-46.735-150.588z" />
<glyph unicode="&#xe92d;" glyph-name="sun-energy-1" d="M1024 418v60h-195.866c-3.4 36.11-12.864 70.48-27.374 102.076l169.644 97.944-30 51.96-169.718-97.986c-20.576 28.844-45.848 54.118-74.694 74.694l97.986 169.718-51.96 30-97.944-169.646c-31.596 14.51-65.966 23.974-102.076 27.374v195.866h-60v-195.866c-36.11-3.4-70.478-12.864-102.076-27.374l-97.942 169.646-51.96-30 97.986-169.718c-28.844-20.576-54.118-45.848-74.694-74.694l-169.718 97.986-30-51.96 169.644-97.944c-14.508-31.596-23.972-65.966-27.372-102.076h-195.866v-60h195.866c3.4-36.11 12.864-70.48 27.374-102.076l-169.646-97.944 30-51.96 169.718 97.986c20.576-28.844 45.848-54.118 74.694-74.694l-97.986-169.718 51.96-30 97.944 169.646c40.24-18.48 84.972-28.802 132.076-28.802s91.834 10.322 132.076 28.802l97.944-169.646 51.96 30-97.986 169.718c28.844 20.576 54.118 45.848 74.694 74.694l169.718-97.986 30 51.96-169.644 97.944c14.51 31.596 23.974 65.966 27.374 102.076h195.864zM512 190.438c-142.020 0-257.562 115.542-257.562 257.562s115.542 257.562 257.562 257.562 257.562-115.542 257.562-257.562-115.542-257.562-257.562-257.562zM602.048 506.436v100.104h-60v-100.104h-60.096v100.104h-60v-100.104h-60.048v-105.806c0-72.492 51.66-133.14 120.096-147.078v-317.552h60v317.552c68.436 13.938 120.096 74.588 120.096 147.078v105.806h-60.048zM602.096 400.63c0-49.678-40.416-90.096-90.096-90.096s-90.096 40.416-90.096 90.096v45.806h180.192v-45.806z" />
<glyph unicode="&#xe92e;" glyph-name="pinwheel" d="M710.204 365.778l191.796-159.83v376.478l-185.778 185.778 159.828 191.796h-376.476l-185.778-185.778-191.796 159.83v-376.478l185.778-185.778-159.83-191.796h334.052v-184h-180v-60h420v60h-180v201.574zM542 282.426v140.592c23.716 4.834 45.394 15.304 63.622 29.912l58.298-48.582zM422 570c0 49.626 40.374 90 90 90s90-40.374 90-90-40.374-90-90-90-90 40.374-90 90zM644.084 498.98c6.852 12.692 11.932 26.474 14.896 41.020h183.020v-205.948zM799.574 600h-140.592c-4.834 23.716-15.304 45.394-29.912 63.622l48.582 58.3zM583.020 702.086c-12.692 6.852-26.474 11.932-41.020 14.896v183.018h205.95zM482 857.574v-140.592c-23.716-4.834-45.394-15.304-63.622-29.912l-58.298 48.582zM379.916 641.020c-6.852-12.692-11.932-26.474-14.896-41.020h-183.020v205.948zM224.426 540h140.592c4.834-23.716 15.304-45.394 29.912-63.622l-48.582-58.3zM276.050 240l164.93 197.914c12.692-6.852 26.474-11.932 41.020-14.896v-183.018zM482 600h60v-60h-60z" />
<glyph unicode="&#xe92f;" glyph-name="hydro-power" d="M289.69 326.044c-2.422 54.988 15.712 108.506 51.060 150.696l-46.018 38.556c-45.010-53.724-68.1-121.872-65.016-191.892 3.084-70.018 32.074-135.872 81.634-185.432l42.45 42.448c-38.92 38.92-61.69 90.638-64.11 145.624zM914.628 618.114h-177.99l32.576 341.886-110.282-180.752-149.846 178.854-306.39-365.696c-64.336-76.792-97.342-174.2-92.932-274.282 4.408-100.082 45.848-194.214 116.686-265.052 75.494-75.496 175.87-117.072 282.636-117.072s207.142 41.576 282.636 117.072c63.85 63.85 104.544 148.388 114.58 238.040 9.234 82.464-7.678 166.434-47.702 238.568l56.028 88.434zM684.728 706.266l-14.12-148.186h134.918l-116.074-183.22 16.386 144.362h-135.23l114.12 187.044zM846.64 297.792c-8.53-76.176-43.11-148.010-97.372-202.272-64.156-64.156-149.456-99.488-240.186-99.488s-176.030 35.332-240.186 99.488c-60.198 60.2-95.414 140.192-99.158 225.244s24.302 167.83 78.974 233.086l260.374 310.772 116.846-139.464-162.276-265.968h174.95l-38.274-337.18 220.646 348.286c23.194-53.918 32.252-113.656 25.662-172.504z" />
<glyph unicode="&#xe930;" glyph-name="hot" d="M414.921 449.991c-25.93-25.93-40.212-60.409-40.212-97.081s14.282-71.149 40.212-97.079 60.409-40.212 97.081-40.212 71.151 14.282 97.081 40.212c25.932 25.93 40.214 60.409 40.214 97.081s-14.282 71.149-40.214 97.079c-25.93 25.93-60.409 40.212-97.081 40.212s-71.151-14.282-97.081-40.212zM589.261 352.912c0-20.637-8.038-40.038-22.63-54.63s-33.995-22.628-54.632-22.628-40.038 8.036-54.63 22.63c-14.592 14.592-22.628 33.993-22.628 54.63s8.036 40.038 22.63 54.63c14.592 14.592 33.993 22.628 54.63 22.628 20.635 0 40.040-8.036 54.632-22.63s22.628-33.995 22.628-54.63zM624.729 508.2l78.82 78.82 42.443-42.443-78.82-78.82zM701.604 382.928h111.483v-60.033h-111.483zM624.696 197.609l42.443 42.443 78.82-78.82-42.443-42.443zM481.983 163.307h60.033v-111.483h-60.033zM277.764 161.284l78.819 78.819 42.443-42.443-78.819-78.819zM210.91 382.928h111.483v-60.033h-111.483zM277.8 544.596l42.443 42.443 78.819-78.819-42.443-42.443zM481.983 653.999h60.033v-111.483h-60.033zM1022.635 541.373l-510.635 418.627-510.633-418.627 38.061-46.426 32.004 26.236v-585.186h880.813v585.456l32.332-26.507zM892.209-3.967h-760.747v574.368l380.538 311.97 380.209-311.702z" />
<glyph unicode="&#xe931;" glyph-name="cold" d="M481.983 694.418v-50.732l-42.682 42.682-42.449-42.449 85.131-85.131v-116.372l-82.285 82.287v67.861h-60.033v-50.278h-51.468v-60.033h69.052l82.285-82.285h-116.372l-85.131 85.129-42.447-42.449 42.68-42.68h-42.437v-60.033h42.439l-42.653-42.653 42.449-42.449 85.101 85.103h116.372l-82.285-82.287h-67.861v-60.033h50.278v-51.466h60.033v69.050l82.285 82.287v-116.372l-85.131-85.131 42.449-42.449 42.682 42.682v-50.732h60.033v50.732l42.653-42.651 42.447 42.449-85.101 85.101v116.372l82.287-82.287v-67.861h60.033v50.278h51.466v60.033h-69.050l-82.287 82.287h116.372l85.131-85.131 42.449 42.449-42.682 42.682h42.437v60.033h-42.437l42.651 42.651-42.449 42.449-85.101-85.101h-116.372l82.287 82.285h67.861v60.033h-50.278v51.468h-60.033v-69.052l-82.287-82.287v116.372l85.101 85.101-42.447 42.449-42.653-42.651v50.732zM1022.633 541.373l-510.633 418.627-510.633-418.627 38.061-46.426 32.004 26.236v-585.186h880.813v585.456l32.332-26.507zM892.209-3.967h-760.745v574.368l380.536 311.97 380.209-311.702z" />
<glyph unicode="&#xe932;" glyph-name="electricity" d="M1022.633 541.375l-510.633 418.625-510.635-418.625 38.061-46.426 32.006 26.238v-585.186h880.813v585.452l32.332-26.507zM892.209-3.967h-760.745v574.37l380.536 311.968 380.209-311.702zM429.861 650.145l-207.55-329.998h237.215l-45.857-268.060 387.175 448.159h-231.564l88.233 149.899zM669.647 440.214l-160.446-185.718 21.5 125.685h-199.712l132.035 209.932h89.491l-88.233-149.899z" />
<glyph unicode="&#xe933;" d="M619.658 452.112v-0.020l-107.646-516.092-107.644 516.092z" />
<glyph unicode="&#xe934;" d="M512.006 536.856v-600.848l-107.638 516.084z" />
<glyph unicode="&#xe935;" d="M777.32 694.682c0-146.531-118.787-265.318-265.318-265.318s-265.318 118.787-265.318 265.318c0 146.531 118.787 265.318 265.318 265.318s265.318-118.787 265.318-265.318z" />
<glyph unicode="&#xe936;" d="M387.734 694.674c0 122.114 82.5 224.942 194.798 255.83-22.458 6.18-46.104 9.496-70.526 9.496-146.536 0-265.326-118.792-265.326-265.326s118.792-265.324 265.326-265.324c24.424 0 48.066 3.316 70.526 9.494-112.298 30.888-194.798 133.718-194.798 255.83z" />
<glyph unicode="&#xe937;" d="M709.568 737.46c0-27.698-22.454-50.152-50.152-50.152s-50.152 22.454-50.152 50.152c0 27.698 22.454 50.152 50.152 50.152s50.152-22.454 50.152-50.152z" />
<glyph unicode="&#xe938;" glyph-name="cctv" d="M840.624 356c-4.284-47.286-18.578-91.72-40.75-131.168-0.662-1.286-1.354-2.566-2.086-3.832-0.558-0.966-1.172-1.888-1.762-2.828-57.532-96.998-163.302-162.172-284.026-162.172-120.732 0-226.51 65.184-284.040 162.194-0.586 0.932-1.194 1.848-1.748 2.806-0.758 1.312-1.48 2.64-2.168 3.978-22.126 39.412-36.39 83.794-40.666 131.022h-120.37c7.122-108.906 52.912-210.314 130.794-288.198 84.994-84.994 197.998-131.802 318.198-131.802s233.204 46.808 318.198 131.802c77.884 77.884 123.674 179.292 130.796 288.198h-120.37zM0 776v-360h183.378c4.276 47.228 18.54 91.61 40.666 131.022 0.688 1.338 1.41 2.666 2.168 3.978 0.554 0.958 1.162 1.872 1.748 2.806 57.53 97.010 163.308 162.194 284.040 162.194 120.708 0 226.468-65.158 284.006-162.136 0.598-0.95 1.218-1.884 1.782-2.862 0.744-1.288 1.448-2.59 2.12-3.898 22.152-39.432 36.432-83.842 40.712-131.104h183.38v360h-1024zM0 960h1024v-124h-1024v124zM434.102 190.988c-18.804 7.538-36.276 17.714-51.948 30.080-7.802-13.594-19.064-24.964-33-33.010-4.334-2.502-8.874-4.586-13.53-6.326 25.508-22.054 55.18-39.408 87.652-50.738-0.824 4.884-1.276 9.892-1.276 15.006 0 16.382 4.422 31.742 12.102 44.988zM512 176c-16.542 0-30-13.458-30-30s13.458-30 30-30 30 13.458 30 30-13.458 30-30 30zM688.376 181.732c-4.656 1.74-9.194 3.824-13.53 6.326-14.214 8.206-25.32 19.742-32.952 33.046-15.684-12.382-33.172-22.572-51.994-30.118 7.68-13.246 12.1-28.606 12.1-44.988 0-5.114-0.452-10.122-1.276-15.006 32.472 11.332 62.144 28.686 87.652 50.74zM330.134 281c-5.344 9.258-15.322 15.010-26.036 15.010-5.286 0-10.314-1.356-14.944-4.030-6.94-4.008-11.904-10.476-13.978-18.216-1.968-7.35-1.074-14.998 2.446-21.694 0.56-0.976 1.14-1.942 1.712-2.91 5.552-8.172 14.892-13.17 24.876-13.17 5.286 0 10.314 1.356 14.944 4.030 6.94 4.006 11.904 10.476 13.978 18.216s1.008 15.824-2.998 22.764zM734.846 291.98c-4.63 2.674-9.658 4.030-14.944 4.030-10.714 0-20.692-5.752-26.038-15.010-4.004-6.94-5.070-15.024-2.994-22.764 2.074-7.74 7.038-14.21 13.976-18.216 4.63-2.674 9.658-4.030 14.944-4.030 9.984 0 19.324 4.998 24.878 13.17 0.562 0.952 1.13 1.898 1.68 2.856 7.48 14.168 2.492 31.884-11.502 39.964zM304.152 415.992c-15.78-0.002-31.322 4.172-44.996 12.066-4.404 2.542-8.522 5.432-12.37 8.6-3.128-16.414-4.786-33.346-4.786-50.658s1.658-34.244 4.786-50.658c3.846 3.168 7.966 6.058 12.368 8.6 13.674 7.894 29.216 12.068 44.944 12.068-1.354 9.798-2.098 19.808-2.098 29.99s0.744 20.192 2.152 29.992zM777.21 436.672c-3.82-3.158-7.934-6.054-12.364-8.612-13.674-7.894-29.214-12.068-44.944-12.068 1.354-9.8 2.098-19.81 2.098-29.992s-0.744-20.192-2.098-29.99c15.728 0 31.27-4.174 44.944-12.068 4.432-2.558 8.546-5.456 12.364-8.612 3.132 16.418 4.79 33.352 4.79 50.67s-1.658 34.252-4.79 50.672zM333.132 513.764c-2.074 7.74-7.038 14.21-13.978 18.216-4.63 2.674-9.66 4.030-14.944 4.030-9.984 0-19.324-4.998-24.876-13.17-0.572-0.97-1.15-1.934-1.712-2.91-3.522-6.696-4.416-14.344-2.446-21.694 2.074-7.74 7.038-14.208 13.978-18.216 4.63-2.674 9.66-4.030 14.944-4.030 10.714 0 20.69 5.752 26.036 15.010 4.006 6.94 5.072 15.024 2.998 22.764zM600.726 641.004c0.824-4.884 1.276-9.892 1.276-15.006 0-16.382-4.422-31.742-12.1-44.988 18.82-7.544 36.308-17.734 51.992-30.116 7.632 13.304 18.738 24.842 32.952 33.046 4.334 2.502 8.872 4.586 13.53 6.326-25.508 22.054-55.178 39.408-87.65 50.738zM512 656c-16.542 0-30-13.458-30-30s13.458-30 30-30 30 13.458 30 30-13.458 30-30 30zM512 536c-82.71 0-150-67.29-150-150s67.29-150 150-150c82.71 0 150 67.29 150 150s-67.29 150-150 150zM746.36 519.964c-0.558 0.968-1.132 1.924-1.698 2.884-5.554 8.166-14.892 13.162-24.872 13.162-5.286 0-10.312-1.356-14.944-4.030-6.94-4.006-11.902-10.476-13.976-18.216s-1.010-15.824 2.996-22.764c5.346-9.258 15.322-15.010 26.038-15.010 5.286 0 10.312 1.356 14.944 4.030 13.986 8.076 18.978 25.778 11.512 39.944zM422 626c0 5.114 0.452 10.122 1.276 15.006-32.472-11.33-62.144-28.684-87.652-50.738 4.656-1.74 9.194-3.824 13.53-6.326 13.936-8.046 25.198-19.414 33-33.010 15.672 12.364 33.144 22.542 51.948 30.080-7.68 13.246-12.102 28.606-12.102 44.988z" />
<glyph unicode="&#xe939;" glyph-name="checked" d="M512 960c-282.306 0-512-229.694-512-512s229.694-512 512-512 512 229.694 512 512-229.694 512-512 512zM798.155 582.737l-327.218-324.652c-19.248-19.248-50.045-20.531-70.576-1.283l-173.233 157.835c-20.531 19.248-21.815 51.328-3.85 71.86 19.248 20.531 51.328 21.815 71.86 2.566l137.303-125.754 292.571 292.571c20.531 20.531 52.612 20.531 73.143 0s20.531-52.612 0-73.143z" />
<glyph unicode="&#xe93a;" glyph-name="worker" d="M893.034 121.624v48.084c27.926 20.12 44.5 52.594 44.5 87.532 0 33.806-15.926 66.006-42.57 86.108-6.040 4.584-14.006 5.336-20.802 1.964-6.864-3.406-11.128-10.3-11.128-17.992v-50.18c0-0.576-0.358-0.82-0.5-0.82h-41.34c-0.17 0-0.5 0.29-0.5 0.82v50.18c0 7.68-4.252 14.57-11.096 17.98-6.782 3.378-14.748 2.64-20.804-1.93-24.358-18.396-39.71-46.848-42.2-77.376l-166.138 55.904c-9.726 3.27-16.262 12.362-16.262 22.622v0.012c58.7 33.084 99.772 93.914 105.268 164.578 27.714 0.494 51.032 24.372 51.032 52.19 0 15.298-6.804 29.562-17.926 39.31 4.032 8.040 6.316 17.1 6.316 26.69 0 27.766-19.040 51.168-44.75 57.84v66c0 72.588-48.882 135.486-117.88 154.078-1.050 30.384-26.078 54.782-56.712 54.782h-53.696c-30.636 0-55.664-24.398-56.714-54.782-68.998-18.592-117.88-81.492-117.88-154.078v-66c-25.71-6.67-44.75-30.072-44.75-57.84 0-9.59 2.284-18.65 6.316-26.69-11.122-9.748-17.926-24.012-17.926-39.31 0-27.856 23.048-51.722 51.032-52.19 5.496-70.664 46.568-131.494 105.268-164.578v-0.012c0-10.26-6.536-19.352-16.264-22.624l-168.8-56.8c-54.676-18.502-88.656-67.732-89.662-124.768v-189.328c0-8.284 6.716-15 15-15h0.006c8.284 0 15 6.716 15 15v189.32c0.674 34.448 17.604 66.936 46.976 85.672l43.15-48.148c14.442-16.12 22.396-36.914 22.396-58.554v-168.29c0-8.284 6.716-15 15-15s15 6.716 15 15v45.972h188.698v-45.972c0-8.284 6.716-15 15-15s15 6.716 15 15v45.972h188.7v-45.972c0-8.284 6.716-15 15-15s15 6.716 15 15v168.28c0 21.656 7.952 42.456 22.39 58.568l35.118 39.18c7.462-18.792 20.076-35.292 36.792-47.322v-43.134c-23.248 2.558-44.112-14.59-44.114-38.164v-114.246c0-21.042 17.12-38.164 38.164-38.164h82.514c38.54 0 69.894 31.354 69.894 69.894v50.784c0.002 29.438-18.302 54.666-44.116 64.948zM690.494 561.3c0-11.352-9.082-21.272-20.4-22.132v32.188c4.548 1.71 8.834 3.958 12.782 6.668 4.726-4.146 7.618-10.214 7.618-16.724zM255.292 539.168c-11.348 0.864-20.4 10.722-20.4 22.132 0 6.51 2.892 12.578 7.618 16.726 3.946-2.71 8.232-4.958 12.782-6.668zM246.502 627.3c0 16.38 13.31 29.708 29.68 29.744 0.188 0 199.058 0.004 199.266 0.004 8.284 0 15 6.716 15 15s-6.716 15-15 15h-184.196v64.092c0 56.15 36.004 105.16 87.83 122.734v-89.96c0-8.284 6.716-15 15-15s15 6.716 15 15v119.322c0 14.758 12.006 26.764 26.764 26.764h53.696c14.758 0 26.764-12.006 26.764-26.764v-119.324c0-8.284 6.716-15 15-15s15 6.716 15 15v89.96c51.826-17.574 87.83-66.584 87.83-122.734v-64.092h-88.684c-8.284 0-15-6.716-15-15s6.716-15 15-15c0.136 0 103.56-0.006 103.684-0.006 16.394 0 29.75-13.336 29.75-29.74 0-16.402-13.344-29.746-29.748-29.746h-372.888c-16.402 0-29.748 13.344-29.748 29.746zM285.292 525.34v42.214h354.8v-42.214c0-97.818-79.582-177.4-177.4-177.4s-177.4 79.582-177.4 177.4zM389.526 331.272c22.764-8.612 47.424-13.332 73.166-13.332s50.402 4.72 73.166 13.332c4.574-18.062 18.252-32.69 36.574-38.328-30.696-25.326-69.568-39.516-109.742-39.516s-79.046 14.19-109.742 39.516c18.21 5.818 32.044 20.194 36.578 38.328zM462.422 93.246c-19.958 18.32-38.146 38.604-54.14 60.392-4.904 6.678-14.29 8.118-20.968 3.216s-8.118-14.29-3.216-20.968c18.616-25.362 40.014-48.808 63.594-69.734v-39.18h-188.698v92.318c0 29.038-10.672 56.942-30.054 78.574l-36.734 40.99 121.938 41.032c7.924-28.38 18.612-55.968 31.93-82.192 3.794-7.47 12.908-10.268 20.166-6.582 7.386 3.75 10.334 12.78 6.582 20.166-7.276 14.328-13.714 29.092-19.29 44.184 32.316-20.688 70.218-32.034 109.16-32.034 38.286 0 75.56 10.978 107.514 31.008-10.302-26.134-22.992-51.272-37.954-75.134-19.678-31.386-43.146-60.302-69.83-86.056zM696.442 197.872c-19.376-21.626-30.048-49.536-30.048-78.59v-92.308h-188.7v39.424c30.738 28.752 57.65 61.362 79.976 96.968 22.818 36.39 40.668 75.564 53.2 116.646l122.306-41.154zM776.194 257.24c0 16.476 5.214 32.414 14.5 45.494v-25.594c0-16.994 13.682-30.82 30.5-30.82h41.34c16.818 0 30.5 13.826 30.5 30.82v25.762c9.37-13.032 14.5-28.854 14.5-45.662 0-26.052-12.692-50.174-33.996-64.558-6.578-4.474-10.504-11.884-10.504-19.822v-46.29h-42.34v46.29c0 7.938-3.926 15.348-10.546 19.852-21.262 14.354-33.954 38.476-33.954 64.528zM907.152 5.894c0-21.998-17.896-39.894-39.894-39.894h-82.514c-4.5 0-8.164 3.662-8.164 8.164v114.246c0 4.5 3.662 8.164 8.164 8.164h82.514c21.998 0 39.894-17.896 39.894-39.894zM498.51 400.932c6.754 4.798 8.338 14.162 3.54 20.916-4.798 6.752-14.162 8.34-20.916 3.54-2.924-2.076-9.058-5.604-17.298-5.9-9.326-0.336-16.282 3.56-19.6 5.912-6.76 4.788-16.122 3.194-20.912-3.568-4.79-6.76-3.192-16.122 3.568-20.912 6.148-4.356 18.784-11.454 35.814-11.454 14.92 0 28.79 6.484 35.804 11.466zM374.938 550.664c-8.284 0-15-6.716-15-15v-31.046c0-8.284 6.716-15 15-15s15 6.716 15 15v31.046c0 8.284-6.716 15-15 15zM550.45 489.616c8.284 0 15 6.716 15 15v31.046c0 8.284-6.716 15-15 15s-15-6.716-15-15v-31.046c0-8.284 6.716-15 15-15z" />
<glyph unicode="&#xe93b;" glyph-name="phone-call" d="M424.024 360.024c-97.739 97.739-119.808 195.478-124.787 234.637-1.391 10.828 2.335 21.686 10.081 29.378l79.095 79.060c11.635 11.628 13.7 29.749 4.979 43.697l-125.934 195.549c-9.648 15.444-29.459 21.018-45.745 12.871l-202.169-95.214c-13.17-6.485-20.916-20.477-19.421-35.081 10.593-100.634 54.466-348.019 297.578-591.148s490.461-286.985 591.148-297.578c14.603-1.495 28.596 6.251 35.081 19.421l95.214 202.169c8.117 16.251 2.58 36.008-12.8 45.674l-195.549 125.899c-13.939 8.73-32.060 6.68-43.697-4.943l-79.060-79.095c-7.692-7.746-18.551-11.472-29.378-10.081-39.159 4.979-136.898 27.048-234.637 124.787zM812.138 412.69c-19.501 0-35.31 15.809-35.31 35.31-0.165 146.192-118.636 264.662-264.828 264.828-19.501 0-35.31 15.809-35.31 35.31s15.809 35.31 35.31 35.31c185.178-0.204 335.244-150.27 335.448-335.448 0-19.501-15.809-35.31-35.31-35.31zM988.69 412.69c-19.501 0-35.31 15.809-35.31 35.31-0.272 243.654-197.725 441.107-441.379 441.379-19.501 0-35.31 15.809-35.31 35.31s15.809 35.31 35.31 35.31c282.641-0.311 511.689-229.359 512-512 0-9.365-3.72-18.346-10.342-24.968s-15.603-10.342-24.968-10.342z" />
<glyph unicode="&#xe93c;" glyph-name="down-arrow" d="M512.001 155.427l329.143 329.143-109.714 109.714-146.285-146.285v512.001h-146.285v-512.001l-146.285 146.285-109.714-109.714zM0 82.285h1024v-146.285h-1024z" />
<glyph unicode="&#xe93d;" glyph-name="discount" d="M1009.798 365.056c-14.348 20.046-38.248 33.518-62.378 35.156-19.694 1.336-37.54-5.324-50.236-18.762-2.786-2.948-5.792-6.186-8.972-9.654-14.046 12.866-32.45 21.146-51.008 22.408-19.702 1.332-37.54-5.324-50.236-18.762-27.636-29.256-76.566-86.398-114.992-131.888-5.012 2.964-10.376 5.41-16.048 7.242-18.37 7.91-271.57 116.046-383.806 116.046-181.3 0-264.59-97.446-268.048-101.596-5.302-6.362-4.442-15.798 1.904-21.122 6.348-5.322 15.818-4.488 21.16 1.844 0.192 0.226 19.65 23.008 59.394 45.458 36.634 20.692 98.568 45.356 185.59 45.356 107.826 0 369.942-112.742 372.578-113.88 0.484-0.21 0.98-0.394 1.484-0.552 12.518-3.906 22.766-12.454 28.856-24.068 6.090-11.612 7.292-24.904 3.384-37.424-3.676-11.774-11.898-21.994-22.632-28.072-12.012-6.802-26.184-7.63-39.346-4.026l-163.99 45.166c-8.002 2.198-16.278-2.496-18.482-10.5-2.204-8.002 2.496-16.276 10.498-18.48l163.762-45.102c32.286-9.958 68.414 2.248 87.93 29.842 4.79 6.774 8.482 14.302 10.954 22.22 2.056 6.584 3.218 13.304 3.53 20.018l43.984 4.63c3.892 0.41 7.472 2.322 9.978 5.33 1.084 1.302 108.932 130.774 154.424 178.928 18.91 20.018 52.668 5.828 66.322-13.248 20.994-29.332-5.096-61.356-13.592-70.474-41.752-44.798-118.314-137.088-132.074-153.722l-311.602-155.802-298.224 125.568c-1.846 0.778-3.83 1.178-5.834 1.178h-208.408c-8.3 0-15.030-6.73-15.030-15.030s6.73-15.030 15.030-15.030h205.372l301.798-127.072c1.868-0.788 3.852-1.178 5.832-1.178 2.306 0 4.612 0.532 6.722 1.588l320.626 160.314c1.876 0.938 3.534 2.258 4.87 3.876 0.88 1.066 88.516 107.188 132.91 154.818 32.684 35.064 38.832 76.626 16.046 108.458zM745.424 205.808l-39.16-4.122c-2.776 7.86-6.778 15.246-11.826 21.876 32.732 38.748 85.924 101.11 114.384 131.234 8.224 8.704 18.878 9.918 26.346 9.416 11.784-0.802 23.864-6.36 32.95-14.766-45.094-50.904-106.486-124.226-122.694-143.638zM849.25 655.406h-129.252v170.332c0 8.3-6.728 15.030-15.030 15.030s-15.030-6.73-15.030-15.030v-185.362c0-8.3 6.728-15.030 15.030-15.030h103.654l-296.030-253.74-296.030 253.74h103.654c8.3 0 15.030 6.73 15.030 15.030v289.566h354.694v-35.068c0-8.3 6.728-15.030 15.030-15.030s15.030 6.73 15.030 15.030v50.096c0 8.3-6.728 15.030-15.030 15.030h-384.752c-8.3 0-15.030-6.73-15.030-15.030v-289.566h-129.252c-13.63 0-20.156-17.548-9.782-26.44l336.658-288.564c5.56-4.766 14.002-4.766 19.562 0l336.658 288.564c10.374 8.894 3.85 26.442-9.782 26.442zM619.408 859.41c-5.872 5.87-15.386 5.87-21.256 0l-192.376-192.376c-9.258-9.256-2.514-25.656 10.628-25.656 3.846 0 7.694 1.466 10.626 4.402l192.376 192.376c5.872 5.87 5.872 15.386 0.002 21.254zM592.75 735.562c-25.966 0-47.092-21.126-47.092-47.092s21.126-47.092 47.092-47.092c25.966 0 47.092 21.126 47.092 47.092s-21.126 47.092-47.092 47.092zM592.75 671.436c-9.392 0-17.034 7.64-17.034 17.034s7.64 17.034 17.034 17.034c9.392 0 17.034-7.64 17.034-17.034s-7.642-17.034-17.034-17.034zM432.436 863.812c-25.966 0-47.092-21.126-47.092-47.092s21.126-47.092 47.092-47.092c25.966 0 47.092 21.126 47.092 47.092s-21.124 47.092-47.092 47.092zM432.436 799.686c-9.392 0-17.034 7.64-17.034 17.034s7.64 17.034 17.034 17.034 17.034-7.64 17.034-17.034-7.642-17.034-17.034-17.034z" />
<glyph unicode="&#xe93e;" glyph-name="settings" d="M877.946 136.564c-29.196 0-52.95-23.752-52.95-52.95 0-29.196 23.752-52.948 52.95-52.948 29.196 0 52.948 23.752 52.948 52.948s-23.752 52.95-52.948 52.95zM877.944 62.046c-11.892 0-21.568 9.676-21.568 21.568s9.676 21.568 21.568 21.568c11.892 0 21.568-9.676 21.568-21.568s-9.676-21.568-21.568-21.568zM1020.606 86.36c-1 38.766-17.408 74.422-46.204 100.396l-315.904 284.93 279.316 279.316c1.836 0.548 3.65 1.23 5.4 2.154l60.486 31.924c8.356 4.412 13.96 12.304 15.37 21.646 1.412 9.344-1.61 18.536-8.292 25.224l-68.104 68.102c-6.684 6.682-15.87 9.704-25.222 8.292-9.342-1.41-17.232-7.014-21.646-15.372l-31.926-60.482c-0.932-1.766-1.648-3.592-2.198-5.446l-131.84-131.84c-6.128-6.13-6.128-16.062 0-22.192 6.13-6.124 16.062-6.124 22.192 0l120.984 120.986 31.706-31.706-309.4-309.4-31.706 31.706 135.050 135.048c6.128 6.13 6.128 16.062 0 22.192-6.13 6.124-16.062 6.124-22.192 0l-97.988-97.988-106.644 96.188c30.236 87.032 8.34 183.862-57.25 249.45-67.182 67.182-167.966 88.592-256.762 54.538-4.962-1.904-8.624-6.188-9.728-11.386s0.494-10.602 4.252-14.36l123.184-123.186c3.644-3.644 5.654-8.49 5.654-13.644s-2.008-10-5.654-13.646l-79.998-79.998c-3.644-3.646-8.49-5.654-13.644-5.654s-10 2.006-13.646 5.654l-123.186 123.186c-3.76 3.758-9.16 5.356-14.36 4.252-5.198-1.106-9.482-4.766-11.386-9.728-34.054-88.792-12.644-189.576 54.54-256.762 63.982-63.98 158.936-86.506 244.598-58.828l82.454-90.166c-3.962-7.742-9.114-14.962-15.468-21.316-23.768-23.768-59.39-31.256-90.76-19.080-5.798 2.256-12.376 0.868-16.776-3.53l-192.118-192.118c-52.008-52.010-52.008-136.634 0-188.64 25.198-25.202 58.696-39.076 94.326-39.076 35.628 0 69.128 13.874 94.322 39.068l192.118 192.116c4.396 4.398 5.782 10.978 3.53 16.776-12.178 31.368-4.69 66.994 19.076 90.762 23.772 23.768 59.396 31.256 90.764 19.080 5.802-2.256 12.376-0.864 16.776 3.53l36.24 36.24c10.912 10.912 16.92 25.422 16.92 40.852s-6.008 29.94-16.92 40.852l-15.426 15.426 18.766 18.766 317.104-286.014c22.344-20.154 35.078-47.822 35.852-77.902s-10.518-58.366-31.796-79.642c-21.176-21.18-49.39-32.452-79.272-31.806-29.942 0.668-57.562 13.208-77.772 35.31l-235.778 257.83c-5.854 6.398-15.774 6.838-22.168 0.99-6.394-5.85-6.838-15.774-0.99-22.168l235.776-257.83c26.048-28.482 61.644-44.642 100.23-45.504 1.080-0.024 2.158-0.036 3.236-0.036 37.376 0 72.398 14.498 98.928 41.024 27.42 27.422 41.97 63.874 40.974 102.64zM892.298 819.1l30.038 56.908 64.398-64.398-56.908-30.038-37.528 37.528zM334.648 518.722c-4.32 4.72-11.068 6.348-17.064 4.112-76.726-28.62-163.69-9.736-221.536 48.104-52.524 52.526-72.876 128.674-54.942 199.63l104.954-104.954c9.574-9.572 22.3-14.842 35.836-14.842s26.262 5.27 35.834 14.842l79.998 79.998c9.572 9.574 14.842 22.3 14.842 35.836s-5.27 26.262-14.842 35.834l-104.952 104.958c70.95 17.942 147.106-2.416 199.628-54.942 59.318-59.314 77.546-148.006 46.444-225.956-2.434-6.098-0.814-13.068 4.064-17.466l113.358-102.244-14.844-14.844-15.426 15.426c-10.912 10.912-25.422 16.92-40.852 16.92s-29.94-6.008-40.852-16.92l-36.24-36.24c-4.396-4.398-5.782-10.978-3.53-16.776 4.174-10.75 5.984-21.994 5.674-33.096l-75.552 82.62zM610.748 355.762l-29.364-29.366c-40.384 11.642-84.328 0.598-114.41-29.482h-0.002c-30.080-30.082-41.126-74.020-29.48-114.412l-185.244-185.24c-19.268-19.268-44.884-29.88-72.13-29.88s-52.866 10.612-72.13 29.88c-39.774 39.772-39.774 104.488 0 144.262l185.242 185.242c40.388-11.648 84.326-0.596 114.41 29.484 30.080 30.082 41.128 74.020 29.482 114.41l29.366 29.364c10.288 10.292 27.034 10.292 37.322 0l106.938-106.938c10.292-10.292 10.292-27.036 0-37.324zM324.652 267.502c-6.13 6.126-16.062 6.126-22.192 0l-148.636-148.636c-6.128-6.13-6.128-16.062 0-22.192 3.064-3.062 7.082-4.594 11.096-4.594s8.032 1.532 11.096 4.594l148.636 148.636c6.126 6.13 6.126 16.064 0 22.192zM379.57 212.584c-6.128 6.126-16.062 6.126-22.192 0l-148.636-148.634c-6.128-6.13-6.128-16.062 0-22.192 3.064-3.062 7.080-4.594 11.096-4.594 4.014 0 8.032 1.532 11.096 4.594l148.636 148.634c6.128 6.13 6.128 16.062 0 22.192z" />
<glyph unicode="&#xe93f;" glyph-name="vision" d="M864 832h-160c-17.664 0-32-14.336-32-32s14.336-32 32-32h128v-128c0-17.664 14.336-32 32-32s32 14.336 32 32v160c0 17.664-14.336 32-32 32zM160 608c17.664 0 32 14.336 32 32v128h128c17.664 0 32 14.336 32 32s-14.336 32-32 32h-160c-17.664 0-32-14.336-32-32v-160c0-17.664 14.336-32 32-32zM160 64h160c17.664 0 32 14.336 32 32s-14.336 32-32 32h-128v128c0 17.664-14.336 32-32 32s-32-14.336-32-32v-160c0-17.664 14.336-32 32-32zM864 288c-17.664 0-32-14.336-32-32v-128h-128c-17.664 0-32-14.336-32-32s14.336-32 32-32h160c17.664 0 32 14.336 32 32v160c0 17.664-14.336 32-32 32zM192 448c0-27.792 12.032-54.176 33.024-72.384 61.456-53.344 212.368-135.616 286.976-135.616s225.52 82.272 286.976 135.616c20.992 18.208 33.024 44.592 33.024 72.384s-12.032 54.176-33.024 72.384c-61.456 53.344-212.368 135.616-286.976 135.616s-225.52-82.272-286.976-135.616c-20.992-18.208-33.024-44.592-33.024-72.384zM266.992 472.064c57.072 49.536 193.424 119.936 245.008 119.936s187.936-70.4 245.008-119.936c7.088-6.144 10.992-14.704 10.992-24.064s-3.904-17.92-10.992-24.064c-57.072-49.536-193.424-119.936-245.008-119.936s-187.936 70.4-245.008 119.936c-7.088 6.144-10.992 14.704-10.992 24.064s3.904 17.92 10.992 24.064zM512 352c52.944 0 96 43.056 96 96s-43.056 96-96 96-96-43.056-96-96 43.056-96 96-96zM512 480c17.648 0 32-14.352 32-32s-14.352-32-32-32-32 14.352-32 32 14.352 32 32 32z" />
<glyph unicode="&#xe940;" glyph-name="increase" d="M842.93 665.613h148.57l-262.887 262.887-262.887-262.887h152.326v-622.16h-69.34v509.725h-224.877v-509.725h-67.459v318.574h-224.877v-393.527h959.467v74.953h-148.037zM181.418 43.453h-74.965v243.621h74.965zM646.687 740.578l81.926 81.92 81.92-81.92h-42.568v-697.125h-74.953v697.125zM398.795 478.213h74.965v-434.76h-74.965z" />
<glyph unicode="&#xe941;" glyph-name="close" d="M605.814 447.162l398.725 398.737c25.948 25.936 25.948 67.871 0 93.808-25.936 25.936-67.871 25.936-93.808 0l-398.737-398.737-398.725 398.737c-25.948 25.936-67.871 25.936-93.808 0-25.948-25.936-25.948-67.871 0-93.808l398.725-398.737-398.725-398.737c-25.948-25.936-25.948-67.871 0-93.808 12.926-12.938 29.921-19.437 46.904-19.437s33.966 6.499 46.904 19.437l398.725 398.737 398.737-398.737c12.938-12.938 29.921-19.437 46.904-19.437s33.966 6.499 46.904 19.437c25.948 25.936 25.948 67.871 0 93.808z" />
<glyph unicode="&#xe942;" glyph-name="manager" d="M448 592c0-8.837-7.163-16-16-16s-16 7.163-16 16c0 8.837 7.163 16 16 16s16-7.163 16-16zM288 592c0-8.837-7.163-16-16-16s-16 7.163-16 16c0 8.837 7.163 16 16 16s16-7.163 16-16zM336 544h32c8.837 0 16 7.163 16 16s-7.163 16-16 16v0h-16v16c0 8.837-7.163 16-16 16s-16-7.163-16-16v0-32c0-8.837 7.163-16 16-16v0zM438.154 542.77c-1.818 0.778-3.933 1.231-6.154 1.231-6.616 0-12.294-4.016-14.73-9.742l-0.040-0.105c-0.158-0.382-16.46-38.154-65.23-38.154-47.91 0-64.496 36.476-65.272 38.252-2.522 5.724-8.145 9.649-14.685 9.649-8.837 0-16-7.163-16-16 0-2.181 0.436-4.26 1.226-6.154l-0.039 0.106c0.984-2.368 24.906-57.852 94.77-57.852s93.786 55.484 94.77 57.846c0.778 1.818 1.231 3.933 1.231 6.154 0 6.616-4.016 12.294-9.742 14.73l-0.105 0.040zM976 288h-112v48c-0.032 26.497-21.503 47.968-47.997 48h-64.003c-26.497-0.032-47.968-21.503-48-47.997v-48.003h-32v48c-0.051 44.162-35.838 79.949-79.995 80h-124.743c37.744 23.021 67.569 55.706 86.508 94.661l0.588 1.339h5.642c44.162 0.051 79.949 35.838 80 79.995v110.339c38.234 20.454 63.841 60.051 64 105.644v0.022c0 66.168-54.53 120-121.552 120h-358.448c-0.524 0-1.044-0.026-1.564-0.078-47.718-4.69-91.876-28.626-124.342-67.4-31.177-37.539-50.097-86.229-50.097-139.338 0-0.416 0.001-0.832 0.003-1.248v0.064c-0.004-0.507-0.007-1.107-0.007-1.707 0-35.051 8.045-68.223 22.39-97.77l-0.584 1.333c-3.664-8.844-5.792-19.114-5.792-29.882 0-44.168 35.806-79.974 79.974-79.974 0.006 0 0.013 0 0.019 0h5.641c19.527-40.294 49.352-72.979 86.106-95.438l0.99-0.562h-124.738c-44.162-0.051-79.949-35.838-80-79.995v-352.005c0-8.837 7.163-16 16-16v0h928c8.837 0 16 7.163 16 16v0 288c0 8.837-7.163 16-16 16v0zM960 217.888l-128-64v6.112c0 8.837-7.163 16-16 16v0h-64c-8.837 0-16-7.163-16-16v0-6.112l-128 64v38.112h352zM800 144v-32h-32v32zM736 336c0.010 8.832 7.168 15.99 15.999 16h64.001c8.832-0.010 15.99-7.168 16-15.999v-48.001h-96zM640 336v-48h-48c-8.837 0-16-7.163-16-16v0-272h-174.6l14.556 174.67c0.035 0.396 0.055 0.857 0.055 1.322 0 0.702-0.045 1.394-0.133 2.072l0.008-0.080-15.886 127.016v27l54.4-40.8c2.641-1.998 5.98-3.2 9.6-3.2 8.837 0 16 7.163 16 16v0 80h112c26.497-0.031 47.969-21.503 48-47.997v-0.003zM256 384h64l-64-48zM384 384h64v-48zM352 368l16-12v-36h-32v36zM320.084 175.668l14.040 112.332h35.752l14.040-112.332-14.638-175.668h-34.556zM566.816 544.492c5.828 18.975 9.184 40.787 9.184 63.382 0 0.044 0 0.089 0 0.133v-0.007 29.248c18.789-6.796 31.975-24.481 31.975-45.246 0-24.096-17.755-44.045-40.897-47.478l-0.262-0.032zM608 655.956c-9.003 6.845-19.769 11.88-31.481 14.343l-0.519 0.091v17.61h6.448c9.051 0.003 17.873 0.983 26.366 2.839l-0.814-0.149zM122.628 839.98c26.88 32.1 63.144 51.974 102.172 56.020h357.648c49.378 0 89.552-39.476 89.552-88s-40.174-88-89.552-88h-341.014c-5.176 0-9.778-2.458-12.702-6.27l-0.028-0.038c-38.692-50.83-77.724-80.99-89.748-89.692h-34.080c-16.3 27.722-24.876 60.72-24.876 96-0.002 0.359-0.004 0.783-0.004 1.207 0 45.259 16.099 86.758 42.882 119.084l-0.25-0.311zM96 592h32.578c1.258-17.423 4.315-33.611 9.011-49.085l-0.411 1.577c-23.397 3.484-41.145 23.418-41.178 47.504v0.004zM160.184 599.854c15.232 11.23 51.64 40.46 89.102 88.146h294.714v-80c-0.145-105.93-86.050-191.746-192-191.746-103.084 0-187.195 81.238-191.801 183.185l-0.015 0.415zM64 336c0.031 26.497 21.503 47.969 47.997 48h112.003v-80c0-8.837 7.163-16 16-16 3.62 0 6.959 1.202 9.64 3.229l-0.040-0.029 54.4 40.8v-27l-15.876-127.016c-0.079-0.598-0.125-1.29-0.125-1.992 0-0.465 0.020-0.926 0.059-1.381l-0.004 0.059 14.556-174.67h-238.61zM608 0v182.112l128-64v-22.112c0-8.837 7.163-16 16-16v0h64c8.837 0 16 7.163 16 16v0 22.112l128 64v-182.112z" />
<glyph unicode="&#xe943;" glyph-name="event" d="M912 864h-96v16c0 26.51-21.49 48-48 48s-48-21.49-48-48v0-16h-160v16c0 26.51-21.49 48-48 48s-48-21.49-48-48v0-16h-160v16c0 26.51-21.49 48-48 48s-48-21.49-48-48v0-16h-96c-44.162-0.051-79.949-35.838-80-79.995v-736.005c0.051-44.162 35.838-79.949 79.995-80h800.005c44.162 0.051 79.949 35.838 80 79.995v736.005c-0.051 44.162-35.838 79.949-79.995 80h-0.005zM752 880c0 8.837 7.163 16 16 16s16-7.163 16-16v0-96c0-8.837-7.163-16-16-16s-16 7.163-16 16v0zM496 880c0 8.837 7.163 16 16 16s16-7.163 16-16v0-96c0-8.837-7.163-16-16-16s-16 7.163-16 16v0zM240 880c0 8.837 7.163 16 16 16s16-7.163 16-16v0-96c0-8.837-7.163-16-16-16s-16 7.163-16 16v0zM112 832h96v-48c0-26.51 21.49-48 48-48s48 21.49 48 48v0 48h160v-48c0-26.51 21.49-48 48-48s48 21.49 48 48v0 48h160v-48c0-26.51 21.49-48 48-48s48 21.49 48 48v0 48h96c26.497-0.032 47.968-21.503 48-47.997v-112.003h-896v112c0.032 26.497 21.503 47.968 47.997 48h0.003zM912 0h-800c-26.497 0.032-47.968 21.503-48 47.997v592.003h896v-592c-0.032-26.497-21.503-47.968-47.997-48h-0.003zM880 528h-64c-8.837 0-16-7.163-16-16v0-64c0-8.837 7.163-16 16-16v0h64c8.837 0 16 7.163 16 16v0 64c0 8.837-7.163 16-16 16v0zM864 464h-32v32h32zM560 208h-64c-8.837 0-16-7.163-16-16v0-64c0-8.837 7.163-16 16-16v0h64c8.837 0 16 7.163 16 16v0 64c0 8.837-7.163 16-16 16v0zM544 144h-32v32h32zM400 528h-64c-8.837 0-16-7.163-16-16v0-64c0-8.837 7.163-16 16-16v0h64c8.837 0 16 7.163 16 16v0 64c0 8.837-7.163 16-16 16v0zM384 464h-32v32h32zM240 368h-64c-8.837 0-16-7.163-16-16v0-64c0-8.837 7.163-16 16-16v0h64c8.837 0 16 7.163 16 16v0 64c0 8.837-7.163 16-16 16v0zM224 304h-32v32h32zM400 368h-64c-8.837 0-16-7.163-16-16v0-64c0-8.837 7.163-16 16-16v0h64c8.837 0 16 7.163 16 16v0 64c0 8.837-7.163 16-16 16v0zM384 304h-32v32h32zM240 208h-64c-8.837 0-16-7.163-16-16v0-64c0-8.837 7.163-16 16-16v0h64c8.837 0 16 7.163 16 16v0 64c0 8.837-7.163 16-16 16v0zM224 144h-32v32h32zM400 208h-64c-8.837 0-16-7.163-16-16v0-64c0-8.837 7.163-16 16-16v0h64c8.837 0 16 7.163 16 16v0 64c0 8.837-7.163 16-16 16v0zM384 144h-32v32h32zM738.416 462.034l-80 12.224-35.932 76.542c-2.617 5.482-8.116 9.202-14.484 9.202s-11.867-3.72-14.442-9.106l-0.042-0.096-35.916-76.542-80-12.224c-7.74-1.211-13.592-7.831-13.592-15.818 0-4.353 1.739-8.3 4.559-11.185l-0.003 0.003 58.362-59.814-13.8-84.652c-0.13-0.766-0.204-1.648-0.204-2.548 0-8.837 7.163-16 16-16 2.829 0 5.486 0.734 7.791 2.022l-0.081-0.042 71.368 39.448 71.368-39.448c2.232-1.257 4.9-1.997 7.741-1.997 8.837 0 16 7.163 16 16 0 0.909-0.076 1.801-0.222 2.669l0.013-0.094-13.8 84.652 58.362 59.814c2.818 2.882 4.556 6.829 4.556 11.182 0 7.987-5.852 14.607-13.502 15.806l-0.090 0.012zM660.548 391.8c-2.813-2.881-4.549-6.825-4.549-11.174 0-0.91 0.076-1.801 0.222-2.669l-0.013 0.094 9.8-60.102-50.272 27.8c-2.232 1.256-4.899 1.997-7.74 1.997s-5.508-0.74-7.821-2.038l0.081 0.042-50.272-27.8 9.8 60.102c0.133 0.774 0.209 1.666 0.209 2.576 0 4.349-1.735 8.294-4.552 11.178l0.003-0.003-42.244 43.304 57.666 8.8c5.371 0.843 9.794 4.258 12.024 8.922l0.042 0.096 25.068 53.422 25.070-53.412c2.272-4.76 6.695-8.175 11.975-9.006l0.091-0.012 57.666-8.8zM880 368h-64c-8.837 0-16-7.163-16-16v0-64c0-8.837 7.163-16 16-16v0h64c8.837 0 16 7.163 16 16v0 64c0 8.837-7.163 16-16 16v0zM864 304h-32v32h32zM880 208h-64c-8.837 0-16-7.163-16-16v0-64c0-8.837 7.163-16 16-16v0h64c8.837 0 16 7.163 16 16v0 64c0 8.837-7.163 16-16 16v0zM864 144h-32v32h32zM720 208h-64c-8.837 0-16-7.163-16-16v0-64c0-8.837 7.163-16 16-16v0h64c8.837 0 16 7.163 16 16v0 64c0 8.837-7.163 16-16 16v0zM704 144h-32v32h32z" />
<glyph unicode="&#xe944;" glyph-name="settings-1" d="M971.283 561.778h-95.801c-15.398 0-28.084 8.476-33.982 22.699s-2.901 29.203 7.964 40.088l67.736 67.717c9.956 9.956 15.436 23.211 15.436 37.281 0 14.089-5.48 27.326-15.436 37.3l-86.338 86.338c-19.911 19.911-54.632 19.949-74.581 0l-67.717-67.717c-10.885-10.866-25.903-13.9-40.088-7.983-14.222 5.897-22.699 18.584-22.699 33.982v95.801c0 29.070-23.647 52.717-52.717 52.717h-122.121c-29.070 0-52.717-23.647-52.717-52.717v-95.801c0-15.398-8.476-28.084-22.699-33.982-14.184-5.935-29.203-2.882-40.088 7.983l-67.717 67.717c-19.949 19.949-54.67 19.911-74.581 0l-86.338-86.338c-9.956-9.956-15.436-23.211-15.436-37.3 0-14.071 5.48-27.307 15.436-37.281l67.736-67.717c10.866-10.885 13.843-25.865 7.964-40.088s-18.584-22.699-33.982-22.699h-95.801c-29.070 0-52.717-23.647-52.717-52.717v-122.103c0-29.089 23.647-52.736 52.717-52.736h95.801c15.398 0 28.084-8.476 33.982-22.699s2.901-29.203-7.964-40.088l-67.736-67.717c-9.956-9.956-15.436-23.211-15.436-37.281 0-14.089 5.48-27.326 15.436-37.3l86.338-86.338c19.93-19.93 54.632-19.968 74.581 0l67.717 67.736c10.885 10.866 25.847 13.862 40.088 7.964 14.222-5.897 22.699-18.584 22.699-33.982v-95.801c0-29.070 23.647-52.717 52.717-52.717h122.103c29.070 0 52.717 23.647 52.717 52.717v95.801c0 15.398 8.476 28.084 22.699 33.982 14.241 5.916 29.203 2.901 40.088-7.964l67.717-67.736c19.949-19.949 54.67-19.911 74.581 0l86.338 86.338c9.956 9.956 15.436 23.211 15.436 37.3 0 14.071-5.48 27.307-15.436 37.281l-67.736 67.717c-10.866 10.885-13.843 25.865-7.964 40.088s18.603 22.699 34.001 22.699h95.801c29.070 0 52.717 23.647 52.717 52.717v122.121c0 29.070-23.647 52.717-52.717 52.717zM986.074 386.939c0-8.154-6.637-14.791-14.791-14.791h-95.801c-30.796 0-57.249-17.673-69.025-46.118-11.795-28.444-5.594-59.657 16.194-81.427l67.736-67.717c5.784-5.784 5.784-15.17 0-20.935l-86.338-86.338c-5.765-5.765-15.151-5.803-20.935 0l-67.717 67.736c-21.788 21.788-52.983 27.951-81.427 16.194-28.444-11.776-46.118-38.229-46.118-69.025v-95.801c0-8.154-6.637-14.791-14.791-14.791h-122.121c-8.154 0-14.791 6.637-14.791 14.791v95.801c0 30.796-17.673 57.249-46.118 69.025-9.538 3.963-19.361 5.897-29.070 5.897-19.228 0-37.869-7.585-52.357-22.073l-67.717-67.736c-5.803-5.803-15.189-5.765-20.935 0l-86.338 86.338c-5.784 5.784-5.784 15.17 0 20.935l67.736 67.717c21.769 21.769 27.989 52.983 16.194 81.427-11.776 28.425-38.229 46.099-69.025 46.099h-95.801c-8.154 0-14.791 6.637-14.791 14.791v122.121c0 8.154 6.637 14.791 14.791 14.791h95.801c30.796 0 57.249 17.673 69.025 46.118 11.795 28.444 5.594 59.657-16.194 81.427l-67.736 67.717c-5.784 5.784-5.784 15.17 0 20.935l86.338 86.338c5.765 5.784 15.151 5.784 20.935 0l67.717-67.717c21.751-21.751 52.945-27.989 81.427-16.194 28.444 11.757 46.118 38.21 46.118 69.006v95.801c0 8.154 6.637 14.791 14.791 14.791h122.103c8.173 0 14.81-6.637 14.81-14.791v-95.801c0-30.796 17.673-57.249 46.118-69.025 28.482-11.795 59.657-5.575 81.427 16.194l67.717 67.717c5.803 5.784 15.189 5.784 20.935 0l86.338-86.338c5.784-5.784 5.784-15.17 0-20.935l-67.736-67.717c-21.769-21.769-27.989-52.983-16.194-81.427 11.776-28.444 38.229-46.118 69.025-46.118h95.801c8.154 0.019 14.791-6.618 14.791-14.772v-122.121zM512 618.667c-94.113 0-170.667-76.553-170.667-170.667s76.553-170.667 170.667-170.667 170.667 76.553 170.667 170.667-76.553 170.667-170.667 170.667zM512 315.259c-73.178 0-132.741 59.563-132.741 132.741s59.563 132.741 132.741 132.741 132.741-59.563 132.741-132.741-59.563-132.741-132.741-132.741z" />
<glyph unicode="&#xe945;" glyph-name="map" d="M512 660c41.974 0 76 34.026 76 76s-34.026 76-76 76c-41.974 0-76-34.026-76-76v0c0.049-41.954 34.046-75.951 75.995-76h0.005zM512 780c24.301 0 44-19.699 44-44s-19.699-44-44-44c-24.301 0-44 19.699-44 44v0c0.028 24.289 19.711 43.972 43.997 44h0.003zM831.35 548.514c-2.014 6.694-8.122 11.486-15.35 11.486h-212.532l17.4 37.716c41.036 32.517 67.124 82.353 67.124 138.282 0 97.202-78.798 176-176 176s-176-78.798-176-176c0-55.929 26.088-105.765 66.759-138.003l0.365-0.279 17.4-37.716h-212.516c-7.228 0-13.336-4.792-15.321-11.373l-0.029-0.113-160-544c-0.412-1.352-0.65-2.905-0.65-4.514 0-8.837 7.163-16 16-16h928c8.837 0 16 7.163 16 16 0 1.609-0.237 3.162-0.679 4.627l0.029-0.113zM368 736c0 0.003 0 0.006 0 0.009 0 79.529 64.471 144 144 144s144-64.471 144-144c0-46.954-22.473-88.659-57.25-114.946l-0.362-0.263c-2.097-1.587-3.766-3.631-4.877-5.99l-0.041-0.098-81.47-176.53-81.47 176.52c-1.152 2.456-2.821 4.5-4.878 6.059l-0.040 0.029c-35.126 26.337-57.613 67.878-57.613 114.67 0 0.19 0 0.379 0.001 0.569v-0.029zM435.302 528l62.17-134.706c2.598-5.533 8.123-9.296 14.528-9.296s11.93 3.763 14.487 9.199l0.041 0.098 62.17 134.706h114.926l-188.334-246.282 0.554-0.424-181.788 18.18 106.82 71.214c4.32 2.91 7.124 7.784 7.124 13.312 0 2.14-0.42 4.182-1.183 6.048l0.039-0.107-55.224 138.058zM69.384 16l150.588 512h137.2l55.156-137.888-133.2-88.8c-4.32-2.91-7.124-7.784-7.124-13.313 0-8.272 6.277-15.078 14.328-15.914l0.069-0.006 287.758-28.778-213.090-227.302zM404.932 16l133.762 142.678 142.678-142.678zM726.628 16l-166.028 166.038 59.080 63.018c2.681 2.854 4.328 6.706 4.328 10.943 0 8.276-6.283 15.084-14.339 15.915l-0.068 0.006-57.142 5.714 191.448 250.366h60.122l150.6-512z" />
<glyph unicode="&#xe946;" glyph-name="settings-2" d="M566.547 469.136c11.797 6.033 24.939 9.222 38.573 9.222 22.595 0 43.838-8.772 59.851-24.701l34.472 34.469c85.307-29.903 183.973-10.759 252.17 57.434 57.382 57.382 80.012 136.331 67.932 210.75-1.331 8.195-7.133 14.955-15.032 17.505-7.898 2.554-16.569 0.479-22.438-5.394l-51.184-51.184c-41.683-41.683-109.268-41.683-150.951 0-41.686 41.683-41.686 109.268 0 150.951l51.184 51.184c5.872 5.872 7.965 14.543 5.408 22.445-2.554 7.905-9.324 13.694-17.523 15.025-74.415 12.080-153.368-10.55-210.746-67.932-69.21-69.21-87.837-169.79-56.005-255.954l-74.765-74.765 89.052-89.056zM430.306 333.658l-88.678 88.678-310.087-310.083c-40.32-40.32-40.32-105.691 0-146.011s105.691-40.32 146.011 0l267.314 267.311c-26.962 27.105-31.821 68.026-14.56 100.105zM628.086 416.446c-6.34 6.34-14.655 9.512-22.965 9.512s-16.625-3.172-22.965-9.512l-18.511-18.511-329.744 329.744 15.413 15.413c14.043 14.040 12.3 37.33-3.706 49.116l-134.536 99.082c-12.929 9.519-30.871 8.167-42.224-3.186l-57.123-57.127c-11.353-11.353-12.705-29.299-3.186-42.224l99.078-134.536c11.787-16.003 35.063-17.764 49.116-3.706l15.413 15.416 329.744-329.744-19.814-19.814c-12.684-12.684-12.684-33.246 0-45.93l304.197-304.197c40.32-40.32 105.691-40.32 146.011 0s40.32 105.691 0 146.011l-304.197 304.193z" />
<glyph unicode="&#xe947;" glyph-name="call-back" d="M595.482 675.015c-22.883 22.68-35.484 52.859-35.484 84.976 0 32.125 12.602 62.297 35.484 84.976l104.359 103.437c15.695 15.547 41.015 15.437 56.57-0.258 15.547-15.687 15.437-41.015-0.258-56.562l-90.39-89.593h138.14c121.21 0 219.897-98.609 219.999-219.812l0.094-110.148c0.016-22.094-17.875-40.015-39.969-40.031-0.008 0-0.023 0-0.031 0-22.078 0-39.984 17.883-40 39.961l-0.094 110.148c-0.062 77.132-62.867 139.882-139.999 139.882h-142.179l94.429-93.586c15.695-15.555 15.805-40.875 0.258-56.57-7.82-7.891-18.117-11.844-28.414-11.844-10.18 0-20.359 3.859-28.156 11.594zM977.441 238.977c-55.867 53.867-102.671 84.961-147.296 97.859-61.492 17.766-118.445 1.609-169.28-48.039-0.078-0.070-0.148-0.148-0.227-0.227l-54.133-53.719c-33.625 18.883-98.984 60.453-170.468 131.937l-5.266 5.258c-71.015 71.015-112.843 136.749-131.874 170.507l53.679 54.078c0.070 0.078 0.148 0.156 0.227 0.234 49.64 50.828 65.797 107.781 48.031 169.28-12.898 44.625-43.992 91.429-97.859 147.288-27.516 28.531-64.476 45.031-104.085 46.461-39.625 1.437-77.664-12.367-107.164-38.844l-1.148-1.031c-0.531-0.484-1.047-0.977-1.555-1.477-58.718-58.718-89.5-140.921-89.015-237.726 0.82-164.445 91.203-352.498 241.757-503.052 28.39-28.39 60.664-56.492 95.898-83.507 17.539-13.445 42.64-10.125 56.086 7.406 13.437 17.531 10.125 42.64-7.406 56.078-32.469 24.891-62.078 50.664-88.007 76.586-135.992 135.992-217.608 303.053-218.327 446.889-0.375 74.547 22.055 136.781 64.859 180.030l0.305 0.273c29.078 26.101 73.093 24.516 100.21-3.617 103.57-107.398 96.062-158.101 50.297-205.030l-74.14-74.695c-11.625-11.711-14.867-29.375-8.148-44.453 1.883-4.227 47.422-104.851 160.835-218.265l5.258-5.258c113.398-113.398 214.022-158.929 218.249-160.812 15.078-6.711 32.734-3.484 44.453 8.148l74.703 74.148c46.929 45.758 97.625 53.258 205.023-50.297 28.125-27.125 29.711-71.14 3.625-100.21l-0.281-0.312c-42.898-42.461-104.46-64.867-178.202-64.867-0.609 0-1.219 0-1.828 0.008-58.945 0.289-127.195 16.445-197.374 46.719-20.281 8.75-43.828-0.602-52.57-20.883-8.75-20.289 0.602-43.82 20.883-52.57 81.125-34.992 158.054-52.914 228.663-53.265 0.75-0.008 1.5-0.008 2.25-0.008 95.828 0 177.21 30.758 235.476 89.015 0.5 0.508 0.992 1.031 1.477 1.562l1.031 1.156c26.476 29.492 40.273 67.547 38.844 107.156-1.437 39.609-17.937 76.57-46.461 104.085z" />
<glyph unicode="&#xe948;" glyph-name="call" d="M571.391 344.836l-84.922-84.922-162.555 162.555 84.922 84.922-231.227 231.227-128.25-128.25c-31.828-31.828-49.359-74.156-49.359-119.172s17.531-87.336 49.359-119.172l386.664-386.664c32.859-32.852 76.016-49.281 119.172-49.281s86.313 16.43 119.172 49.281l128.25 128.25zM571.391 259.984l146.375-146.375-42.5-42.492-146.367 146.375zM323.984 507.391l-42.5-42.492-146.367 146.375 42.492 42.492zM631.938 27.789c-42.313-42.32-111.172-42.32-153.484 0l-386.664 386.664c-20.5 20.5-31.789 47.75-31.789 76.742s11.289 56.242 31.789 76.742l0.898 0.906 540.156-540.148zM473.227 960v-432.68h60.055v-117.961l179.102 117.961h311.617v432.68zM964 587.328h-269.602l-101.117-66.609v66.609h-60.055v312.672h430.773zM598.492 773.664h60.055v-60h-60.055zM718.594 773.664h60.047v-60h-60.047zM838.688 773.664h60.047v-60h-60.047z" />
<glyph unicode="&#xe949;" glyph-name="hour" d="M512.004 960c-282.319 0-512.004-229.684-512.004-512.004s229.684-512.004 512.004-512.004 512.004 229.684 512.004 512.004-229.691 512.004-512.004 512.004zM512.004 43.83c-222.862 0-404.174 181.305-404.174 404.167s181.312 404.174 404.174 404.174 404.174-181.312 404.174-404.174-181.312-404.167-404.174-404.167zM725.499 442.303h-209.901v181.815c0 29.783-24.132 53.915-53.915 53.915s-53.915-24.132-53.915-53.915v-235.73c0-29.783 24.132-53.915 53.915-53.915h263.816c29.783 0 53.915 24.132 53.915 53.915s-24.139 53.915-53.915 53.915z" />
<glyph unicode="&#xe94a;" glyph-name="placeholder" d="M511.994 960c-219.096 0-397.346-178.275-397.346-397.408 0-154.77 64.583-311.082 186.774-452.040 90.916-104.876 181.301-164.482 185.102-166.968 7.736-5.058 16.601-7.584 25.467-7.584s17.734 2.529 25.467 7.584c1.967 1.285 48.814 32.101 108.618 87.81 70.299 65.489 128.003 136.4 171.508 210.767 60.891 104.088 91.763 211.894 91.763 320.431 0.006 219.133-178.25 397.408-397.352 397.408zM582.625 99.508c-28.144-26.221-53.161-46.365-70.613-59.615-31.279 23.772-86.941 69.781-141.895 133.539-107.747 125.009-162.378 255.941-162.378 389.16 0 167.803 136.49 304.317 304.255 304.317 167.772 0 304.268-136.515 304.268-304.317 0-202.858-127.054-363.796-233.636-463.084zM512 748.829c-102.661 0-186.182-83.521-186.182-186.182s83.521-186.182 186.182-186.182 186.182 83.521 186.182 186.182-83.521 186.182-186.182 186.182zM512 469.557c-51.33 0-93.091 41.761-93.091 93.091s41.761 93.091 93.091 93.091 93.091-41.761 93.091-93.091-41.761-93.091-93.091-93.091z" />
<glyph unicode="&#xe94b;" glyph-name="right-arrow" d="M1012.268 476.314c-0.012 0.012-0.022 0.026-0.036 0.038l-209.008 208c-15.658 15.582-40.984 15.524-56.57-0.136-15.584-15.658-15.524-40.984 0.134-56.568l140.328-139.648h-847.116c-22.092 0-40-17.908-40-40s17.908-40 40-40h847.114l-140.324-139.648c-15.658-15.584-15.718-40.91-0.134-56.568 15.586-15.662 40.914-15.716 56.57-0.136l209.008 208c0.012 0.012 0.022 0.026 0.036 0.038 15.666 15.636 15.616 41.044-0.002 56.628z" />
<glyph unicode="&#xe94c;" glyph-name="home" d="M843.872 536.428v-477.066h-180.128v206.328c0 18.090-14.662 32.75-32.75 32.75h-230.346c-18.090 0-32.75-14.662-32.75-32.75v-206.328h-179.036v477.066h-65.5v-509.816c0-18.090 14.662-32.75 32.75-32.75h244.538c18.090 0 32.75 14.662 32.75 32.75v206.326h164.844v-206.328c0-18.090 14.662-32.75 32.75-32.75h245.63c18.090 0 32.75 14.662 32.75 32.75v509.818h-65.502zM1013.63 448.984l-474.884 444.314c-12.5 11.714-31.932 11.79-44.54 0.208l-483.616-444.316c-13.318-12.238-14.192-32.948-1.954-46.266 6.452-7.042 15.272-10.6 24.126-10.6 7.914 0 15.862 2.86 22.15 8.636l461.258 423.77 452.71-423.574c13.232-12.368 33.93-11.66 46.288 1.54 12.348 13.21 11.67 33.93-1.538 46.288z" />
<glyph unicode="&#xe94d;" glyph-name="store" d="M961.4 938h-898.4c-22.6 0-40.8-18.2-40.8-40.8v-898.4c0-22.6 18.2-40.8 40.8-40.8h898.4c22.6 0 40.8 18.2 40.8 40.8v898.4c0 22.6-18.4 40.8-40.8 40.8zM920.4 763.6c0-39.4-32-71.4-71.4-71.4s-71.4 32-71.4 71.4v92.8h143v-92.8zM695.6 763.6c0-39.4-32-71.4-71.4-71.4s-71.4 32-71.4 71.4v92.8h143v-92.8zM471 763.6c0-39.4-32-71.4-71.4-71.4s-71.4 32-71.4 71.4v92.8h143v-92.8zM246.2 763.6c0-39.4-32-71.4-71.4-71.4s-71.4 32-71.4 71.4v92.8h143v-92.8zM439.8 39.6v281.4h143v-281.4h-143zM664.4 39.6v322.2c0 22.6-18.2 40.8-40.8 40.8h-224.6c-22.6 0-40.8-18.2-40.8-40.8v-322.2h-255.2v588.6c21.4-11.4 45.6-17.8 71.4-17.8 44.4 0 84.4 19 112.2 49.2 28-30.2 68-49.2 112.2-49.2 44.4 0 84.4 19 112.2 49.2 28-30.2 68-49.2 112.2-49.2 44.4 0 84.4 19 112.2 49.2 28-30.2 68-49.2 112.2-49.2 25.8 0 50.2 6.4 71.4 17.8v-588.6h-254.6z" />
<glyph unicode="&#xe94e;" glyph-name="search" d="M991.284 27.298l-243.714 253.474c62.663 74.491 96.997 168.216 96.997 265.788 0 227.967-185.473 413.44-413.44 413.44s-413.44-185.473-413.44-413.44 185.473-413.44 413.44-413.44c85.582 0 167.137 25.813 236.865 74.815l245.565-255.398c10.264-10.66 24.069-16.538 38.863-16.538 14.003 0 27.287 5.339 37.371 15.046 21.427 20.618 22.11 54.808 1.492 76.253zM431.128 852.146c168.504 0 305.586-137.082 305.586-305.586s-137.082-305.586-305.586-305.586-305.586 137.082-305.586 305.586 137.082 305.586 305.586 305.586z" />
<glyph unicode="&#xe94f;" glyph-name="down-chevron" d="M512 191.992l-512 512h255.994l256.006-256 255.994 256.016 256.006-0.016z" />
<glyph unicode="&#xe950;" glyph-name="email" d="M872.66 485.602h-77.888v193.718c59.388 17.48 102.876 72.45 102.876 137.422 0.002 78.994-64.262 143.258-143.254 143.258-55.554 0-103.784-31.806-127.538-78.142h-364.406c-18.348 0-33.224-14.876-33.224-33.224v-363.030h-77.888c-18.076 0-33.224-14.686-33.224-33.224v-483.158c0-18.348 14.876-33.224 33.224-33.224h721.322c18.348 0 33.224 14.876 33.224 33.224v483.156c-0.002 18.518-15.11 33.224-33.224 33.224zM677.586 816.748c-0.002 42.124 34.282 76.806 76.808 76.806 42.352 0 76.81-34.456 76.81-76.81 0-41.186-32.54-74.312-71.772-76.618-44.818-2.888-81.844 32.766-81.844 76.618v0.004zM295.67 815.41l315.474 0.002c0.632-68.634 50.218-127.162 117.18-139.544v-307.862l-216.328-193.226c-0.004 0.004-216.326 193.226-216.326 193.226v447.404zM184.562 378.158c238.594-213.112 212.216-189.46 221.502-198.082l-221.502-149.178v347.26zM261.264 2.446v0.002l194.814 131.202 12.98-12.046c24.178-22.452 61.544-22.436 85.716-0.042l12.514 11.594 194.906-130.71h-500.93zM839.438 30.652l-222.060 148.918c9.798 9.078-16.58-14.568 222.060 198.588v-347.506zM570.708 745.112h-201.692c-18.348 0-33.224-14.876-33.224-33.224s14.876-33.224 33.224-33.224h201.692c18.348 0 33.224 14.876 33.224 33.224s-14.876 33.224-33.224 33.224zM655.008 612.922h-286.020c-18.348 0-33.224-14.876-33.224-33.224s14.876-33.224 33.224-33.224h286.020c18.348 0 33.224 14.876 33.224 33.224s-14.876 33.224-33.224 33.224zM655.008 501.246h-286.020c-18.348 0-33.224-14.876-33.224-33.224s14.876-33.224 33.224-33.224h286.020c18.348 0 33.224 14.876 33.224 33.224s-14.876 33.224-33.224 33.224z" />
<glyph unicode="&#xe951;" glyph-name="smartphone" d="M512 810c0 16.568-13.432 30-30 30h-80c-16.568 0-30-13.432-30-30s13.432-30 30-30h80c16.568 0 30 13.432 30 30zM322 810c0-16.569-13.431-30-30-30s-30 13.431-30 30c0 16.569 13.431 30 30 30s30-13.431 30-30zM882 720h-110v130c0 60.654-49.346 110-110 110h-440c-60.654 0-110-49.346-110-110v-804c0-60.654 49.346-110 110-110h440c60.654 0 110 49.346 110 110v254h110c16.568 0 30 13.432 30 30v360c0 16.568-13.432 30-30 30zM662-4h-440c-27.57 0-50 22.43-50 50v30h540v-30c0-27.57-22.43-50-50-50zM712 136h-540v714c0 27.57 22.43 50 50 50h440c27.57 0 50-22.43 50-50v-130h-270c-16.568 0-30-13.432-30-30v-440c0-11.532 6.612-22.044 17.004-27.040 4.134-1.986 8.574-2.96 12.992-2.96 6.688 0 13.32 2.236 18.744 6.574l91.784 73.426h159.476zM852 360h-310c-6.812 0-13.422-2.318-18.74-6.574l-51.26-41.008v347.582h380zM532 570c0-16.568 13.432-30 30-30h200c16.568 0 30 13.432 30 30s-13.432 30-30 30h-200c-16.568 0-30-13.432-30-30zM762 480h-200c-16.568 0-30-13.432-30-30s13.432-30 30-30h200c16.568 0 30 13.432 30 30s-13.432 30-30 30z" />
<glyph unicode="&#xe952;" glyph-name="shopping-cart" d="M494.646 72.803c0-46.967-38.074-85.041-85.041-85.041s-85.040 38.074-85.040 85.041c0 46.967 38.074 85.041 85.041 85.041s85.040-38.074 85.040-85.041zM753.941 157.843c-46.967 0-85.041-38.074-85.041-85.041s38.074-85.041 85.041-85.041c46.967 0 85.041 38.074 85.041 85.041s-38.074 85.041-85.041 85.041zM1017.914 557.060l-104.641-311.015c0 0-8.662-46.156-52.795-46.156s-475.722 0-528.39 0-54.881 57.853-54.881 57.853-56.145 416.54-58.928 441.705-34.964 43.816-34.964 43.816l-138.468 64.681c-75.809 39.644-41.351 115.074 0 97.749 175.582-82.827 257.145-123.609 262.393-156.234 5.311-32.688 14.542-111.406 14.542-111.406v-0.506c1.075 0.316 1.834 0.506 1.834 0.506s538.443 0 647.194 0c78.149 0 47.104-81.121 47.104-80.994zM866.548 383.881l-1.075-0.063h-512.266l10.559-83.713h477.871l24.911 83.776zM916.435 552.697h-584.409l11.255-89.467c112.102 0 440.378 0 546.726 0l26.429 89.467z" />
<glyph unicode="&#xe953;" glyph-name="pharmacy" d="M120.471 116.706h361.412v301.176h-361.412zM180.706 357.647h240.941v-180.706h-240.941zM720.663 719.059c18.197 126.661-80.115 240.941-208.663 240.941-128.335 0-226.894-114.052-208.663-240.941h-303.337v-783.059h1024v783.059zM963.765 598.588h-304.275c17.555 17.157 32.22 37.462 43.030 60.235h261.244zM512 899.765c83.034 0 150.588-67.554 150.588-150.588 0-84.368-68.903-150.588-150.588-150.588-83.384 0-150.588 67.907-150.588 150.588 0 83.034 67.554 150.588 150.588 150.588zM321.48 658.824c10.81-22.773 25.476-43.078 43.030-60.235h-304.275v60.235zM602.353-3.765v361.412h240.941v-361.412zM903.529-3.765v421.647h-361.412v-421.647h-481.882v542.118h903.529v-542.118zM481.882 658.824h60.235v60.235h60.235v60.235h-60.235v60.235h-60.235v-60.235h-60.235v-60.235h60.235z" />
<glyph unicode="&#xe954;" glyph-name="building1" d="M1011.105 551.738l-121.101 82.885v212.105c0 16.361-13.265 29.624-29.624 29.624h-144.283c-16.362 0-29.624-13.265-29.624-29.624v-72.796c0 0-155.497 106.539-157.533 107.96-9.81 6.837-23.219 7.156-33.668 0l-482.375-330.154c-13.501-9.241-16.955-27.676-7.715-41.177 5.739-8.386 15.025-12.897 24.476-12.897 5.764 0 11.59 1.678 16.705 5.182l87.637 59.983v-524.342c0-16.361 13.265-29.624 29.624-29.624h696.754c16.361 0 29.624 13.265 29.624 29.624v524.344l87.637-59.983c5.118-3.504 10.941-5.182 16.705-5.182 9.449 0 18.735 4.511 24.476 12.897 9.243 13.498 5.788 31.935-7.713 41.176zM573.493 68.109h-122.977v288.058h122.977v-288.058zM830.755 68.109h-198.015v317.684c0 16.361-13.265 29.624-29.624 29.624h-182.227c-16.361 0-29.624-13.265-29.624-29.624v-317.682h-198.017v535.27l318.755 218.165 318.755-218.169v-535.268h-0.003zM830.755 675.176l-85.035 58.202v83.724h85.035v-141.926z" />
<glyph unicode="&#xe955;" d="M400 288h240v-144.016h-240z" />
<glyph unicode="&#xe956;" d="M400 464h240v-144h-240z" />
<glyph unicode="&#xe957;" d="M672 464h240v-144h-240z" />
<glyph unicode="&#xe958;" d="M672 288h240v-144h-240z" />
<glyph unicode="&#xe959;" d="M960 560h-608c-26.51 0-48-21.49-48-48v0-416c0-26.51 21.49-48 48-48v0h608c26.51 0 48 21.49 48 48v0 416c0 26.51-21.49 48-48 48v0zM944 144c0-17.673-14.327-32-32-32v0h-512c-17.673 0-32 14.327-32 32v0 320c0 17.673 14.327 32 32 32v0h512c17.673 0 32-14.327 32-32v0z" />
<glyph unicode="&#xe95a;" d="M800-16h-32v32h-224v-32h-32c-8.837 0-16-7.163-16-16s7.163-16 16-16v0h288c8.837 0 16 7.163 16 16s-7.163 16-16 16v0z" />
<glyph unicode="&#xe95b;" d="M768 848h-2.096l14.24 21.376c5.050 7.482 8.061 16.701 8.061 26.624 0 26.508-21.488 47.998-47.996 48h-580.208c-26.51 0-48-21.49-48-48v0h-48c-26.51 0-48-21.49-48-48v0-128c0-26.51 21.49-48 48-48v0h48c0-26.51 21.49-48 48-48v0-32h-16c-44.161-0.055-79.945-35.839-80-79.995v-48.005h-32c-8.837 0-16-7.163-16-16v0-288c0-8.837 7.163-16 16-16v0h64c26.51 0 48 21.49 48 48v0 48h276.224c20.499-29.203 54.024-48.056 91.952-48.056 61.856 0 112 50.144 112 112 0 58.177-44.357 105.994-101.096 111.476l-0.456 0.036-50 112.544h199.376c26.51 0 48 21.49 48 48v0 48h48c26.51 0 48 21.49 48 48v0 128c0 26.51-21.49 48-48 48v0zM112 704h-48c-8.837 0-16 7.163-16 16v0 128c0 8.837 7.163 16 16 16v0h48zM112 192c0-8.837-7.163-16-16-16v0h-48v256h48c8.837 0 16-7.163 16-16v0zM96 464v48c0 26.51 21.49 48 48 48v0h18.944c6.766-18.741 24.361-31.911 45.045-32h102.123l80-160h-246.112v48c0 26.51-21.49 48-48 48v0zM404.8 272h-260.8v64h260.8c-2.995-9.576-4.72-20.586-4.72-32s1.725-22.424 4.929-32.785l-0.209 0.785zM592 304c0-44.183-35.817-80-80-80s-80 35.817-80 80c0 44.183 35.817 80 80 80v0c44.161-0.055 79.945-35.839 80-79.995v-0.005zM488.512 413.472c-26.549-5.88-49-20.522-64.708-40.678l-0.188-0.25-77.728 155.456h91.712zM688 576c0-8.837-7.163-16-16-16v0h-464c-8.837 0-16 7.163-16 16v0 48h381.744c0.035 0 0.077 0 0.118 0 27.614 0 51.952 14.028 66.277 35.346l0.181 0.286 47.68 71.568zM613.68 677.376c-8.7-12.961-23.298-21.376-39.862-21.376-0.026 0-0.052 0-0.078 0h-413.74c-8.837 0-16 7.163-16 16v0 224c0 8.837 7.163 16 16 16v0h580.208c0.025 0 0.054 0 0.083 0 8.837 0 16-7.163 16-16 0-3.31-1.005-6.385-2.727-8.937l0.036 0.057zM784 672c0-8.837-7.163-16-16-16v0h-48v123.2l24.56 36.8h23.44c8.837 0 16-7.163 16-16v0z" />
<glyph unicode="&#xe95c;" d="M608 624c-150.221 0-272-121.779-272-272s121.779-272 272-272c150.221 0 272 121.779 272 272v0c-0.155 150.159-121.841 271.845-271.985 272h-0.015zM800 336c-8.837 0-16 7.163-16 16v0c-0.1 97.162-78.838 175.9-175.99 176h-0.010c-8.837 0-16 7.163-16 16s7.163 16 16 16v0c114.824-0.127 207.873-93.176 208-207.988v-0.012c0-8.837-7.163-16-16-16v0z" />
<glyph unicode="&#xe95d;" d="M653.184 720.208c-6.854 18.679-24.484 31.766-45.171 31.766-26.51 0-48-21.49-48-48s21.49-48 48-48c5.82 0 11.398 1.036 16.56 2.933l-0.333-0.107c18.683 6.852 31.773 24.484 31.773 45.174 0 5.823-1.037 11.403-2.936 16.567l0.107-0.333z" />
<glyph unicode="&#xe95e;" d="M372.48 651.392c-5.991 2.89-13.027 4.578-20.458 4.578-26.51 0-48-21.49-48-48s21.49-48 48-48c19.076 0 35.553 11.128 43.293 27.246l0.125 0.288c2.892 5.993 4.582 13.032 4.582 20.466 0 19.079-11.131 35.558-27.254 43.297l-0.288 0.125z" />
<glyph unicode="&#xe95f;" d="M884.448 651.392c-5.991 2.89-13.027 4.578-20.458 4.578-26.51 0-48-21.49-48-48s21.49-48 48-48c19.076 0 35.553 11.128 43.293 27.246l0.125 0.288c2.892 5.993 4.582 13.032 4.582 20.466 0 19.079-11.131 35.558-27.254 43.297l-0.288 0.125z" />
<glyph unicode="&#xe960;" d="M372.48 139.424c-5.993 2.891-13.031 4.581-20.464 4.581-26.51 0-48-21.49-48-48s21.49-48 48-48c19.081 0 35.561 11.134 43.3 27.259l0.125 0.288c2.888 5.99 4.576 13.024 4.576 20.453 0 19.076-11.128 35.554-27.247 43.294l-0.288 0.125z" />
<glyph unicode="&#xe961;" d="M884.448 139.424c-5.993 2.891-13.031 4.581-20.464 4.581-26.51 0-48-21.49-48-48s21.49-48 48-48c19.081 0 35.561 11.134 43.3 27.259l0.125 0.288c2.888 5.99 4.576 13.024 4.576 20.453 0 19.076-11.128 35.554-27.247 43.294l-0.288 0.125z" />
<glyph unicode="&#xe962;" d="M1005.152 368.224c-6.851 18.684-24.484 31.775-45.175 31.775-26.51 0-48-21.49-48-48s21.49-48 48-48c5.827 0 11.412 1.038 16.579 2.94l-0.333-0.107c18.673 6.857 31.753 24.485 31.753 45.167 0 5.819-1.036 11.397-2.932 16.558l0.107-0.333z" />
<glyph unicode="&#xe963;" d="M653.184 16.256c-6.854 18.679-24.484 31.766-45.171 31.766-26.51 0-48-21.49-48-48s21.49-48 48-48c5.82 0 11.398 1.036 16.56 2.933l-0.333-0.107c18.683 6.852 31.773 24.484 31.773 45.174 0 5.823-1.037 11.403-2.936 16.567l0.107-0.333z" />
<glyph unicode="&#xe964;" d="M301.2 368.224c-6.85 18.687-24.484 31.78-45.176 31.78-26.51 0-48-21.49-48-48s21.49-48 48-48c5.822 0 11.402 1.037 16.565 2.935l-0.333-0.107c18.68 6.853 31.768 24.484 31.768 45.172 0 5.817-1.035 11.393-2.931 16.553l0.107-0.333z" />
<glyph unicode="&#xe965;" d="M768 944h-704c-26.51 0-48-21.49-48-48v0-128c0-26.51 21.49-48 48-48v0h32v-128c0.356-124.073 71.004-231.562 174.202-284.773l1.798-0.843v-18.384c0-79.529 64.471-144 144-144s144 64.471 144 144v0 18.384c104.996 54.054 175.644 161.543 176 285.567v128.049h32c26.51 0 48 21.49 48 48v0 128c0 26.51-21.49 48-48 48v0zM528 288c0-61.856-50.144-112-112-112s-112 50.144-112 112v0 224c0 61.856 50.144 112 112 112s112-50.144 112-112v0zM704 592c-0.297-105.931-57.505-198.434-142.647-248.575l-1.353-0.737v169.312c0 79.529-64.471 144-144 144s-144-64.471-144-144v0-169.312c-86.495 50.878-143.703 143.381-144 249.269v128.043h576zM784 768c0-8.837-7.163-16-16-16v0h-704c-8.837 0-16 7.163-16 16v0 128c0 8.837 7.163 16 16 16v0h704c8.837 0 16-7.163 16-16v0z" />
<glyph unicode="&#xe966;" d="M416 480c-44.183 0-80-35.817-80-80s35.817-80 80-80c44.183 0 80 35.817 80 80v0c-0.055 44.161-35.839 79.945-79.995 80h-0.005zM416 352c-26.51 0-48 21.49-48 48s21.49 48 48 48c26.51 0 48-21.49 48-48v0c0-26.51-21.49-48-48-48v0z" />
<glyph unicode="&#xe967;" d="M960 568h-378.384l-155.616 124.496c-2.713 2.187-6.202 3.51-10 3.51-8.837 0-16-7.163-16-16 0-0.002 0-0.004 0-0.006v0-112h-144c-26.51 0-48-21.49-48-48v0-480c0-26.51 21.49-48 48-48v0h704c26.51 0 48 21.49 48 48v0 480c0 26.51-21.49 48-48 48v0zM925.824 272c-4.8-8.16-118.912-200-317.824-200s-313.056 191.776-317.824 200c-1.371 2.31-2.181 5.092-2.181 8.064s0.81 5.754 2.221 8.138l-0.041-0.074c4.8 8.16 118.912 200 317.824 200s313.056-191.904 317.824-200.128c1.348-2.295 2.144-5.054 2.144-8s-0.796-5.705-2.184-8.076l0.041 0.076z" />
<glyph unicode="&#xe968;" d="M736 280c0-70.692-57.308-128-128-128s-128 57.308-128 128c0 70.692 57.308 128 128 128s128-57.308 128-128z" />
<glyph unicode="&#xe969;" d="M800 904h-768c-8.837 0-16-7.163-16-16v0-80c0-8.837 7.163-16 16-16v0h16.4c9.416-195.724 170.393-350.847 367.6-350.847s358.185 155.123 367.568 350.006l0.032 0.841h16.4c8.837 0 16 7.163 16 16v0 80c0 8.837-7.163 16-16 16v0zM416 472c-179.728 0.307-326.351 141.626-335.153 319.211l-0.031 0.789h670.4c-8.834-178.385-155.474-319.71-335.187-320h-0.029zM784 824h-736v48h736z" />
<glyph unicode="&#xe96a;" d="M416 504c53.019 0 96 42.981 96 96s-42.981 96-96 96c-53.019 0-96-42.981-96-96v0c0.055-52.997 43.003-95.945 95.995-96h0.005zM416 664c35.346 0 64-28.654 64-64s-28.654-64-64-64c-35.346 0-64 28.654-64 64v0c0 35.346 28.654 64 64 64v0z" />
<glyph unicode="&#xe96b;" d="M432 744c0-8.837-7.163-16-16-16s-16 7.163-16 16c0 8.837 7.163 16 16 16s16-7.163 16-16z" />
<glyph unicode="&#xe96c;" d="M432 600c0-8.837-7.163-16-16-16s-16 7.163-16 16c0 8.837 7.163 16 16 16s16-7.163 16-16z" />
<glyph unicode="&#xe96d;" d="M240 736h256c8.837 0 16-7.163 16-16v-256c0-8.837-7.163-16-16-16h-256c-8.837 0-16 7.163-16 16v256c0 8.837 7.163 16 16 16z" />
<glyph unicode="&#xe96e;" d="M576 736h256c8.837 0 16-7.163 16-16v-256c0-8.837-7.163-16-16-16h-256c-8.837 0-16 7.163-16 16v256c0 8.837 7.163 16 16 16z" />
<glyph unicode="&#xe96f;" d="M240 400h256c8.837 0 16-7.163 16-16v-256c0-8.837-7.163-16-16-16h-256c-8.837 0-16 7.163-16 16v256c0 8.837 7.163 16 16 16z" />
<glyph unicode="&#xe970;" d="M576 400h256c8.837 0 16-7.163 16-16v-256c0-8.837-7.163-16-16-16h-256c-8.837 0-16 7.163-16 16v256c0 8.837 7.163 16 16 16z" />
</font>
</defs>
</svg>
